  0
SECTION
  2
HEADER
  9
$ACADVER
  1
AC1018
  9
$ACADMAINTVER
 70
     0
  9
$DWGCODEPAGE
  3
ANSI_1252
  9
$INSBASE
 10
0.0
 20
0.0
 30
0.0
  9
$EXTMIN
 10
-90.34999971927027
 20
325.3692377816661
 30
0.0
  9
$EXTMAX
 10
206.6500002807278
 20
535.3692377816662
 30
0.0
  9
$LIMMIN
 10
0.0
 20
0.0
  9
$LIMMAX
 10
12.0
 20
9.0
  9
$ORTHOMODE
 70
     0
  9
$REGENMODE
 70
     1
  9
$FILLMODE
 70
     1
  9
$QTEXTMODE
 70
     0
  9
$MIRRTEXT
 70
     1
  9
$LTSCALE
 40
1.0
  9
$ATTMODE
 70
     1
  9
$TEXTSIZE
 40
0.2
  9
$TRACEWID
 40
0.05
  9
$TEXTSTYLE
  7
Standard
  9
$CLAYER
  8
0
  9
$CELTYPE
  6
ByLayer
  9
$CECOLOR
 62
   256
  9
$CELTSCALE
 40
1.0
  9
$DISPSILH
 70
     0
  9
$DIMSCALE
 40
1.0
  9
$DIMASZ
 40
0.18
  9
$DIMEXO
 40
0.0625
  9
$DIMDLI
 40
0.38
  9
$DIMRND
 40
0.0
  9
$DIMDLE
 40
0.0
  9
$DIMEXE
 40
0.18
  9
$DIMTP
 40
0.0
  9
$DIMTM
 40
0.0
  9
$DIMTXT
 40
0.18
  9
$DIMCEN
 40
0.09
  9
$DIMTSZ
 40
0.0
  9
$DIMTOL
 70
     0
  9
$DIMLIM
 70
     0
  9
$DIMTIH
 70
     1
  9
$DIMTOH
 70
     1
  9
$DIMSE1
 70
     0
  9
$DIMSE2
 70
     0
  9
$DIMTAD
 70
     0
  9
$DIMZIN
 70
     0
  9
$DIMBLK
  1

  9
$DIMASO
 70
     1
  9
$DIMSHO
 70
     1
  9
$DIMPOST
  1

  9
$DIMAPOST
  1

  9
$DIMALT
 70
     0
  9
$DIMALTD
 70
     2
  9
$DIMALTF
 40
25.4
  9
$DIMLFAC
 40
1.0
  9
$DIMTOFL
 70
     0
  9
$DIMTVP
 40
0.0
  9
$DIMTIX
 70
     0
  9
$DIMSOXD
 70
     0
  9
$DIMSAH
 70
     0
  9
$DIMBLK1
  1

  9
$DIMBLK2
  1

  9
$DIMSTYLE
  2
Standard
  9
$DIMCLRD
 70
     0
  9
$DIMCLRE
 70
     0
  9
$DIMCLRT
 70
     0
  9
$DIMTFAC
 40
1.0
  9
$DIMGAP
 40
0.09
  9
$DIMJUST
 70
     0
  9
$DIMSD1
 70
     0
  9
$DIMSD2
 70
     0
  9
$DIMTOLJ
 70
     1
  9
$DIMTZIN
 70
     0
  9
$DIMALTZ
 70
     0
  9
$DIMALTTZ
 70
     0
  9
$DIMUPT
 70
     0
  9
$DIMDEC
 70
     4
  9
$DIMTDEC
 70
     4
  9
$DIMALTU
 70
     2
  9
$DIMALTTD
 70
     2
  9
$DIMTXSTY
  7
Standard
  9
$DIMAUNIT
 70
     0
  9
$DIMADEC
 70
     0
  9
$DIMALTRND
 40
0.0
  9
$DIMAZIN
 70
     0
  9
$DIMDSEP
 70
    46
  9
$DIMATFIT
 70
     3
  9
$DIMFRAC
 70
     0
  9
$DIMLDRBLK
  1

  9
$DIMLUNIT
 70
     2
  9
$DIMLWD
 70
    -2
  9
$DIMLWE
 70
    -2
  9
$DIMTMOVE
 70
     0
  9
$LUNITS
 70
     2
  9
$LUPREC
 70
     4
  9
$SKETCHINC
 40
0.1
  9
$FILLETRAD
 40
0.5
  9
$AUNITS
 70
     0
  9
$AUPREC
 70
     0
  9
$MENU
  1
.
  9
$ELEVATION
 40
0.0
  9
$PELEVATION
 40
0.0
  9
$THICKNESS
 40
0.0
  9
$LIMCHECK
 70
     0
  9
$CHAMFERA
 40
0.5
  9
$CHAMFERB
 40
0.5
  9
$CHAMFERC
 40
1.0
  9
$CHAMFERD
 40
0.0
  9
$SKPOLY
 70
     0
  9
$TDCREATE
 40
2458137.672199502
  9
$TDUCREATE
 40
2458137.630532836
  9
$TDUPDATE
 40
2458137.672200046
  9
$TDUUPDATE
 40
2458137.63053338
  9
$TDINDWG
 40
0.0000000116
  9
$TDUSRTIMER
 40
0.0000000116
  9
$USRTIMER
 70
     1
  9
$ANGBASE
 50
0.0
  9
$ANGDIR
 70
     0
  9
$PDMODE
 70
     0
  9
$PDSIZE
 40
0.0
  9
$PLINEWID
 40
0.0
  9
$SPLFRAME
 70
     0
  9
$SPLINETYPE
 70
     6
  9
$SPLINESEGS
 70
     8
  9
$HANDSEED
  5
28A
  9
$SURFTAB1
 70
     6
  9
$SURFTAB2
 70
     6
  9
$SURFTYPE
 70
     6
  9
$SURFU
 70
     6
  9
$SURFV
 70
     6
  9
$UCSBASE
  2

  9
$UCSNAME
  2

  9
$UCSORG
 10
0.0
 20
0.0
 30
0.0
  9
$UCSXDIR
 10
1.0
 20
0.0
 30
0.0
  9
$UCSYDIR
 10
0.0
 20
1.0
 30
0.0
  9
$UCSORTHOREF
  2

  9
$UCSORTHOVIEW
 70
     0
  9
$UCSORGTOP
 10
0.0
 20
0.0
 30
0.0
  9
$UCSORGBOTTOM
 10
0.0
 20
0.0
 30
0.0
  9
$UCSORGLEFT
 10
0.0
 20
0.0
 30
0.0
  9
$UCSORGRIGHT
 10
0.0
 20
0.0
 30
0.0
  9
$UCSORGFRONT
 10
0.0
 20
0.0
 30
0.0
  9
$UCSORGBACK
 10
0.0
 20
0.0
 30
0.0
  9
$PUCSBASE
  2

  9
$PUCSNAME
  2

  9
$PUCSORG
 10
0.0
 20
0.0
 30
0.0
  9
$PUCSXDIR
 10
1.0
 20
0.0
 30
0.0
  9
$PUCSYDIR
 10
0.0
 20
1.0
 30
0.0
  9
$PUCSORTHOREF
  2

  9
$PUCSORTHOVIEW
 70
     0
  9
$PUCSORGTOP
 10
0.0
 20
0.0
 30
0.0
  9
$PUCSORGBOTTOM
 10
0.0
 20
0.0
 30
0.0
  9
$PUCSORGLEFT
 10
0.0
 20
0.0
 30
0.0
  9
$PUCSORGRIGHT
 10
0.0
 20
0.0
 30
0.0
  9
$PUCSORGFRONT
 10
0.0
 20
0.0
 30
0.0
  9
$PUCSORGBACK
 10
0.0
 20
0.0
 30
0.0
  9
$USERI1
 70
     0
  9
$USERI2
 70
     0
  9
$USERI3
 70
     0
  9
$USERI4
 70
     0
  9
$USERI5
 70
     0
  9
$USERR1
 40
18.1
  9
$USERR2
 40
0.0
  9
$USERR3
 40
0.0
  9
$USERR4
 40
0.0
  9
$USERR5
 40
0.0
  9
$WORLDVIEW
 70
     1
  9
$SHADEDGE
 70
     3
  9
$SHADEDIF
 70
    70
  9
$TILEMODE
 70
     1
  9
$MAXACTVP
 70
    64
  9
$PINSBASE
 10
0.0
 20
0.0
 30
0.0
  9
$PLIMCHECK
 70
     0
  9
$PEXTMIN
 10
1.00000000000000E+20
 20
1.00000000000000E+20
 30
1.00000000000000E+20
  9
$PEXTMAX
 10
-1.00000000000000E+20
 20
-1.00000000000000E+20
 30
-1.00000000000000E+20
  9
$PLIMMIN
 10
0.0
 20
0.0
  9
$PLIMMAX
 10
12.0
 20
9.0
  9
$UNITMODE
 70
     0
  9
$VISRETAIN
 70
     1
  9
$PLINEGEN
 70
     0
  9
$PSLTSCALE
 70
     1
  9
$TREEDEPTH
 70
  3020
  9
$CMLSTYLE
  2
Standard
  9
$CMLJUST
 70
     0
  9
$CMLSCALE
 40
1.0
  9
$PROXYGRAPHICS
 70
     1
  9
$MEASUREMENT
 70
     1
  9
$CELWEIGHT
370
    -1
  9
$ENDCAPS
280
     0
  9
$JOINSTYLE
280
     0
  9
$LWDISPLAY
290
     0
  9
$INSUNITS
 70
     4
  9
$HYPERLINKBASE
  1

  9
$STYLESHEET
  1

  9
$XEDIT
290
     1
  9
$CEPSNTYPE
380
     0
  9
$PSTYLEMODE
290
     1
  9
$FINGERPRINTGUID
  2
{D8ED9F2B-8D1F-457E-9157-79C182D02E12}
  9
$VERSIONGUID
  2
{FAEB1C32-E019-11D5-929B-00C0DF256EC4}
  9
$EXTNAMES
290
     1
  9
$PSVPSCALE
 40
0.0
  9
$OLESTARTUP
290
     0
  9
$SORTENTS
280
   127
  9
$INDEXCTL
280
     0
  9
$HIDETEXT
280
     1
  9
$XCLIPFRAME
290
     0
  9
$HALOGAP
280
     0
  9
$OBSCOLOR
 70
   257
  9
$OBSLTYPE
280
     0
  9
$INTERSECTIONDISPLAY
280
     0
  9
$INTERSECTIONCOLOR
 70
   257
  9
$DIMASSOC
280
     2
  9
$PROJECTNAME
  1

  0
ENDSEC
  0
SECTION
  2
CLASSES
  0
CLASS
  1
ACDBDICTIONARYWDFLT
  2
AcDbDictionaryWithDefault
  3
ObjectDBX Classes
 90
        0
 91
        4
280
     0
281
     0
  0
CLASS
  1
VISUALSTYLE
  2
AcDbVisualStyle
  3
ObjectDBX Classes
 90
     4095
 91
        4
280
     0
281
     0
  0
CLASS
  1
MATERIAL
  2
AcDbMaterial
  3
ObjectDBX Classes
 90
     1153
 91
        4
280
     0
281
     0
  0
ENDSEC
  0
SECTION
  2
TABLES
  0
TABLE
  2
VPORT
  5
8
330
0
100
AcDbSymbolTable
 70
     1
  0
VPORT
  5
29
330
8
100
AcDbSymbolTableRecord
100
AcDbViewportTableRecord
  2
*Active
 70
     0
 10
0.0
 20
0.0
 11
1.0
 21
1.0
 12
58.15000028072876
 22
430.3692377816661
 13
0.0
 23
0.0
 14
0.5
 24
0.5
 15
0.5
 25
0.5
 16
0.0
 26
0.0
 36
1.0
 17
0.0
 27
0.0
 37
0.0
 40
231.0000000000002
 41
1.60267857142857
 42
50.0
 43
0.0
 44
0.0
 50
0.0
 51
0.0
 71
     0
 72
   100
 73
     1
 74
     3
 75
     0
 76
     0
 77
     0
 78
     0
281
     0
 65
     1
110
0.0
120
0.0
130
0.0
111
1.0
121
0.0
131
0.0
112
0.0
122
1.0
132
0.0
 79
     0
146
0.0
  0
ENDTAB
  0
TABLE
  2
LTYPE
  5
5
330
0
100
AcDbSymbolTable
 70
     8
  0
LTYPE
  5
14
330
5
100
AcDbSymbolTableRecord
100
AcDbLinetypeTableRecord
  2
ByBlock
 70
     0
  3

 72
    65
 73
     0
 40
0.0
  0
LTYPE
  5
15
330
5
100
AcDbSymbolTableRecord
100
AcDbLinetypeTableRecord
  2
ByLayer
 70
     0
  3

 72
    65
 73
     0
 40
0.0
  0
LTYPE
  5
16
330
5
100
AcDbSymbolTableRecord
100
AcDbLinetypeTableRecord
  2
Continuous
 70
     0
  3
Solid line
 72
    65
 73
     0
 40
0.0
  0
LTYPE
  5
3F
330
5
100
AcDbSymbolTableRecord
100
AcDbLinetypeTableRecord
  2
DASHED
 70
     0
  3
Dashed
 72
    65
 73
     2
 40
15.0
 49
7.0
 74
     0
 49
-8.0
 74
     0
  0
LTYPE
  5
40
330
5
100
AcDbSymbolTableRecord
100
AcDbLinetypeTableRecord
  2
DOTTED
 70
     0
  3
Dotted
 72
    65
 73
     2
 40
1.0
 49
0.0
 74
     0
 49
-1.0
 74
     0
  0
LTYPE
  5
41
330
5
100
AcDbSymbolTableRecord
100
AcDbLinetypeTableRecord
  2
DOT_CENTER
 70
     0
  3
Dot_Center
 72
    65
 73
     4
 40
14.0
 49
12.0
 74
     0
 49
-1.0
 74
     0
 49
0.0
 74
     0
 49
-1.0
 74
     0
  0
LTYPE
  5
42
330
5
100
AcDbSymbolTableRecord
100
AcDbLinetypeTableRecord
  2
LONG_DASHED
 70
     0
  3
Long_Dashed
 72
    65
 73
     2
 40
15.0
 49
10.0
 74
     0
 49
-5.0
 74
     0
  0
LTYPE
  5
43
330
5
100
AcDbSymbolTableRecord
100
AcDbLinetypeTableRecord
  2
DASH_CENTER
 70
     0
  3
Dash_Center
 72
    65
 73
     4
 40
14.0
 49
11.0
 74
     0
 49
-1.0
 74
     0
 49
1.0
 74
     0
 49
-1.0
 74
     0
  0
LTYPE
  5
44
330
5
100
AcDbSymbolTableRecord
100
AcDbLinetypeTableRecord
  2
PHANTOM
 70
     0
  3
Phantom
 72
    65
 73
     6
 40
13.0
 49
10.0
 74
     0
 49
-1.0
 74
     0
 49
0.0
 74
     0
 49
-1.0
 74
     0
 49
0.0
 74
     0
 49
-1.0
 74
     0
  0
LTYPE
  5
45
330
5
100
AcDbSymbolTableRecord
100
AcDbLinetypeTableRecord
  2
CENTER_DASH_DASH
 70
     0
  3
Center_Dash_Dash
 72
    65
 73
     6
 40
14.0
 49
9.0
 74
     0
 49
-1.0
 74
     0
 49
1.0
 74
     0
 49
-1.0
 74
     0
 49
1.0
 74
     0
 49
-1.0
 74
     0
  0
ENDTAB
  0
TABLE
  2
LAYER
  5
2
330
0
100
AcDbSymbolTable
 70
     2
  0
LAYER
  5
10
330
2
100
AcDbSymbolTableRecord
100
AcDbLayerTableRecord
  2
0
 70
     0
 62
     7
  6
Continuous
370
    -3
390
F
  0
LAYER
  5
46
330
2
100
AcDbSymbolTableRecord
100
AcDbLayerTableRecord
  2
1
 70
     0
 62
     7
  6
Continuous
370
    -3
390
F
  0
ENDTAB
  0
TABLE
  2
STYLE
  5
3
330
0
100
AcDbSymbolTable
 70
     5
  0
STYLE
  5
11
330
3
100
AcDbSymbolTableRecord
100
AcDbTextStyleTableRecord
  2
Standard
 70
     0
 40
0.0
 41
1.0
 50
0.0
 71
     0
 42
0.2
  3
txt
  4

  0
STYLE
  5
17D
330
3
100
AcDbSymbolTableRecord
100
AcDbTextStyleTableRecord
  2
CONVERTER_11
 70
     0
 40
0.0
 41
0.9
 50
0.0
 71
     0
 42
0.2
  3
txt.shx
  4

  0
STYLE
  5
184
330
3
100
AcDbSymbolTableRecord
100
AcDbTextStyleTableRecord
  2
CONVERTER_12
 70
     0
 40
0.0
 41
0.81
 50
0.0
 71
     0
 42
0.2
  3
txt.shx
  4

  0
STYLE
  5
19A
330
3
100
AcDbSymbolTableRecord
100
AcDbTextStyleTableRecord
  2
CONVERTER_13
 70
     0
 40
0.0
 41
0.72
 50
0.0
 71
     0
 42
0.2
  3
txt.shx
  4

  0
STYLE
  5
19D
330
3
100
AcDbSymbolTableRecord
100
AcDbTextStyleTableRecord
  2
CONVERTER_14
 70
     0
 40
0.0
 41
0.855
 50
0.0
 71
     0
 42
0.2
  3
txt.shx
  4

  0
ENDTAB
  0
TABLE
  2
VIEW
  5
6
330
0
100
AcDbSymbolTable
 70
     0
  0
ENDTAB
  0
TABLE
  2
UCS
  5
7
330
0
100
AcDbSymbolTable
 70
     0
  0
ENDTAB
  0
TABLE
  2
APPID
  5
9
330
0
100
AcDbSymbolTable
 70
     1
  0
APPID
  5
12
330
9
100
AcDbSymbolTableRecord
100
AcDbRegAppTableRecord
  2
ACAD
 70
     0
  0
ENDTAB
  0
TABLE
  2
DIMSTYLE
  5
A
330
0
100
AcDbSymbolTable
 70
     4
100
AcDbDimStyleTable
  0
DIMSTYLE
105
27
330
A
100
AcDbSymbolTableRecord
100
AcDbDimStyleTableRecord
  2
Standard
 70
     0
178
     0
340
11
  0
DIMSTYLE
105
20B
102
{ACAD_REACTORS
330
20C
102
}
330
A
100
AcDbSymbolTableRecord
100
AcDbDimStyleTableRecord
  2
ME10_DIM_10
 70
     0
 41
3.5
 42
0.0
 44
1.5
 73
     0
 74
     0
 77
     1
 78
     8
140
3.5
147
1.5
172
     1
173
     1
174
     1
175
     1
176
     2
177
     2
178
     3
340
17D
  0
DIMSTYLE
105
255
102
{ACAD_REACTORS
330
256
102
}
330
A
100
AcDbSymbolTableRecord
100
AcDbDimStyleTableRecord
  2
ME10_DIM_11
 70
     0
 41
3.5
 42
0.0
 44
1.5
 73
     0
 74
     0
 77
     1
 78
     8
140
3.5
147
1.5
172
     1
173
     1
174
     1
175
     1
176
     2
177
     2
178
     3
340
17D
  0
DIMSTYLE
105
260
102
{ACAD_REACTORS
330
261
102
}
330
A
100
AcDbSymbolTableRecord
100
AcDbDimStyleTableRecord
  2
ME10_DIM_12
 70
     0
 41
3.5
 42
0.0
 44
1.5
 73
     0
 74
     0
 77
     1
 78
     8
140
3.5
147
1.5
172
     1
173
     1
174
     1
175
     1
176
     2
177
     2
178
     3
340
17D
  0
ENDTAB
  0
TABLE
  2
BLOCK_RECORD
  5
1
330
0
100
AcDbSymbolTable
 70
    20
  0
BLOCK_RECORD
  5
1F
330
1
100
AcDbSymbolTableRecord
100
AcDbBlockTableRecord
  2
*Model_Space
340
22
  0
BLOCK_RECORD
  5
1B
330
1
100
AcDbSymbolTableRecord
100
AcDbBlockTableRecord
  2
*Paper_Space
340
1E
  0
BLOCK_RECORD
  5
23
330
1
100
AcDbSymbolTableRecord
100
AcDbBlockTableRecord
  2
*Paper_Space0
340
26
  0
BLOCK_RECORD
  5
47
330
1
100
AcDbSymbolTableRecord
100
AcDbBlockTableRecord
  2
_rahmen
340
0
102
{BLKREFS
331
4E
102
}
  0
BLOCK_RECORD
  5
4A
330
1
100
AcDbSymbolTableRecord
100
AcDbBlockTableRecord
  2
_punkt
340
0
102
{BLKREFS
331
4F
102
}
  0
BLOCK_RECORD
  5
4D
330
1
100
AcDbSymbolTableRecord
100
AcDbBlockTableRecord
  2
A4I_CS
340
0
102
{BLKREFS
331
7D
102
}
  0
BLOCK_RECORD
  5
52
330
1
100
AcDbSymbolTableRecord
100
AcDbBlockTableRecord
  2
D-QTC_1_5-TWIN-select__1
340
0
102
{BLKREFS
331
56
102
}
  0
BLOCK_RECORD
  5
55
330
1
100
AcDbSymbolTableRecord
100
AcDbBlockTableRecord
  2
AllgSicht1
340
0
102
{BLKREFS
331
7E
102
}
  0
BLOCK_RECORD
  5
59
330
1
100
AcDbSymbolTableRecord
100
AcDbBlockTableRecord
  2
D-QTC_1_5-TWIN-select__2
340
0
102
{BLKREFS
331
5D
102
}
  0
BLOCK_RECORD
  5
5C
330
1
100
AcDbSymbolTableRecord
100
AcDbBlockTableRecord
  2
Drfsicht1
340
0
102
{BLKREFS
331
7F
102
}
  0
BLOCK_RECORD
  5
60
330
1
100
AcDbSymbolTableRecord
100
AcDbBlockTableRecord
  2
D-QTC_1_5-TWIN-select__3
340
0
102
{BLKREFS
331
64
102
}
  0
BLOCK_RECORD
  5
63
330
1
100
AcDbSymbolTableRecord
100
AcDbBlockTableRecord
  2
Rckans1
340
0
102
{BLKREFS
331
80
102
}
  0
BLOCK_RECORD
  5
67
330
1
100
AcDbSymbolTableRecord
100
AcDbBlockTableRecord
  2
D-QTC_1_5-TWIN-select__4
340
0
102
{BLKREFS
331
6B
102
}
  0
BLOCK_RECORD
  5
6A
330
1
100
AcDbSymbolTableRecord
100
AcDbBlockTableRecord
  2
SA_Links1
340
0
102
{BLKREFS
331
81
102
}
  0
BLOCK_RECORD
  5
6E
330
1
100
AcDbSymbolTableRecord
100
AcDbBlockTableRecord
  2
D-QTC_1_5-TWIN-select__5
340
0
102
{BLKREFS
331
72
102
}
  0
BLOCK_RECORD
  5
71
330
1
100
AcDbSymbolTableRecord
100
AcDbBlockTableRecord
  2
SA_Rechts1
340
0
102
{BLKREFS
331
82
102
}
  0
BLOCK_RECORD
  5
75
330
1
100
AcDbSymbolTableRecord
100
AcDbBlockTableRecord
  2
D-QTC_1_5-TWIN-select__6
340
0
102
{BLKREFS
331
79
102
}
  0
BLOCK_RECORD
  5
78
330
1
100
AcDbSymbolTableRecord
100
AcDbBlockTableRecord
  2
Vordans1
340
0
102
{BLKREFS
331
83
102
}
  0
BLOCK_RECORD
  5
7C
330
1
100
AcDbSymbolTableRecord
100
AcDbBlockTableRecord
  2
1
340
0
102
{BLKREFS
331
86
102
}
  0
BLOCK_RECORD
  5
200
330
1
100
AcDbSymbolTableRecord
100
AcDbBlockTableRecord
  2
*D17
340
0
  0
BLOCK_RECORD
  5
24C
330
1
100
AcDbSymbolTableRecord
100
AcDbBlockTableRecord
  2
*D18
340
0
  0
BLOCK_RECORD
  5
257
330
1
100
AcDbSymbolTableRecord
100
AcDbBlockTableRecord
  2
*D19
340
0
  0
ENDTAB
  0
ENDSEC
  0
SECTION
  2
BLOCKS
  0
BLOCK
  5
20
330
1F
100
AcDbEntity
  8
0
100
AcDbBlockBegin
  2
*Model_Space
 70
     0
 10
0.0
 20
0.0
 30
0.0
  3
*Model_Space
  1

  0
ENDBLK
  5
21
330
1F
100
AcDbEntity
  8
0
100
AcDbBlockEnd
  0
BLOCK
  5
1C
330
1B
100
AcDbEntity
 67
     1
  8
0
100
AcDbBlockBegin
  2
*Paper_Space
 70
     0
 10
0.0
 20
0.0
 30
0.0
  3
*Paper_Space
  1

  0
ENDBLK
  5
1D
330
1B
100
AcDbEntity
 67
     1
  8
0
100
AcDbBlockEnd
  0
BLOCK
  5
24
330
23
100
AcDbEntity
  8
0
100
AcDbBlockBegin
  2
*Paper_Space0
 70
     0
 10
0.0
 20
0.0
 30
0.0
  3
*Paper_Space0
  1

  0
ENDBLK
  5
25
330
23
100
AcDbEntity
  8
0
100
AcDbBlockEnd
  0
BLOCK
  5
48
330
47
100
AcDbEntity
  8
0
100
AcDbBlockBegin
  2
_rahmen
 70
     0
 10
201.6500002807288
 20
325.3692377816661
 30
0.0
  3
_rahmen
  1

  0
LINE
  5
87
330
47
100
AcDbEntity
  8
1
  6
Continuous
 62
     6
100
AcDbLine
 10
72.10519575397879
 20
355.8692377816662
 30
0.0
 11
201.6500002807305
 21
355.8692377816662
 31
0.0
  0
LINE
  5
88
330
47
100
AcDbEntity
  8
1
  6
Continuous
 62
     7
100
AcDbLine
 10
90.30519575397881
 20
334.6192377816662
 30
0.0
 11
108.5051957539787
 21
334.6192377816662
 31
0.0
  0
LINE
  5
89
330
47
100
AcDbEntity
  8
1
  6
Continuous
 62
     6
100
AcDbLine
 10
90.30519575397881
 20
330.3692377816662
 30
0.0
 11
72.10519575397879
 21
330.3692377816661
 31
0.0
  0
LINE
  5
8A
330
47
100
AcDbEntity
  8
1
  6
Continuous
 62
     7
100
AcDbLine
 10
90.30519575397881
 20
334.6192377816662
 30
0.0
 11
90.30519575397881
 21
330.3692377816662
 31
0.0
  0
LINE
  5
8B
330
47
100
AcDbEntity
  8
1
  6
Continuous
 62
     7
100
AcDbLine
 10
108.5051957539787
 20
334.6192377816662
 30
0.0
 11
108.5051957539787
 21
330.3692377816661
 31
0.0
  0
LINE
  5
8C
330
47
100
AcDbEntity
  8
1
  6
Continuous
 62
     7
100
AcDbLine
 10
72.10519575397879
 20
334.6192377816661
 30
0.0
 11
72.10519575397879
 21
330.3692377816661
 31
0.0
  0
LINE
  5
8D
330
47
100
AcDbEntity
  8
1
  6
Continuous
 62
     7
100
AcDbLine
 10
72.10519575397879
 20
334.6192377816661
 30
0.0
 11
90.30519575397881
 21
334.6192377816662
 31
0.0
  0
LINE
  5
8E
330
47
100
AcDbEntity
  8
1
  6
Continuous
 62
     2
100
AcDbLine
 10
81.3418506405414
 20
353.9942377816661
 30
0.0
 11
81.3418506405414
 21
348.9942377816661
 31
0.0
  0
LINE
  5
8F
330
47
100
AcDbEntity
  8
1
  6
Continuous
 62
     2
100
AcDbLine
 10
81.3418506405414
 20
348.9942377816661
 30
0.0
 11
76.3418506405414
 21
350.2442377816661
 31
0.0
  0
LINE
  5
90
330
47
100
AcDbEntity
  8
1
  6
Continuous
 62
     2
100
AcDbLine
 10
76.3418506405414
 20
350.2442377816661
 30
0.0
 11
76.3418506405414
 21
352.7442377816661
 31
0.0
  0
LINE
  5
91
330
47
100
AcDbEntity
  8
1
  6
Continuous
 62
     2
100
AcDbLine
 10
76.3418506405414
 20
352.7442377816661
 30
0.0
 11
81.3418506405414
 21
353.9942377816661
 31
0.0
  0
LINE
  5
92
330
47
100
AcDbEntity
  8
1
  6
Continuous
 62
     6
100
AcDbLine
 10
-50.34999971926942
 20
330.3692377816662
 30
0.0
 11
-85.3499997192693
 21
330.3692377816662
 31
0.0
  0
LINE
  5
93
330
47
100
AcDbEntity
  8
1
  6
Continuous
 62
     6
100
AcDbLine
 10
201.6500002807305
 20
347.3692377816662
 30
0.0
 11
201.6500002807301
 21
338.8692377816662
 31
0.0
  0
LINE
  5
94
330
47
100
AcDbEntity
  8
1
  6
Continuous
 62
     6
100
AcDbLine
 10
108.5051957539787
 20
330.3692377816661
 30
0.0
 11
108.1500002807288
 21
330.3692377816662
 31
0.0
  0
LINE
  5
95
330
47
100
AcDbEntity
  8
1
  6
Continuous
 62
     6
100
AcDbLine
 10
-44.14999971927142
 20
330.3692377816661
 30
0.0
 11
-50.34999971926942
 21
330.3692377816662
 31
0.0
  0
LINE
  5
96
330
47
100
AcDbEntity
  8
1
  6
Continuous
 62
     7
100
AcDbLine
 10
108.5051957539787
 20
347.3692377816662
 30
0.0
 11
108.5051957539787
 21
334.6192377816662
 31
0.0
  0
LINE
  5
97
330
47
100
AcDbEntity
  8
1
  6
Continuous
 62
     7
100
AcDbLine
 10
72.10519575397879
 20
347.3692377816662
 30
0.0
 11
72.10519575397879
 21
334.6192377816661
 31
0.0
  0
LINE
  5
98
330
47
100
AcDbEntity
  8
1
  6
Continuous
 62
     6
100
AcDbLine
 10
58.15000028072882
 20
330.3692377816662
 30
0.0
 11
8.15000028072859
 21
330.3692377816662
 31
0.0
  0
LINE
  5
99
330
47
100
AcDbEntity
  8
1
  6
Continuous
 62
     6
100
AcDbLine
 10
-44.14999971927142
 20
330.3692377816661
 30
0.0
 11
-41.84999971927118
 21
330.3692377816662
 31
0.0
  0
LINE
  5
9A
330
47
100
AcDbEntity
  8
1
  6
Continuous
 62
     6
100
AcDbLine
 10
108.5051957539787
 20
330.3692377816661
 30
0.0
 11
158.1500002807288
 21
330.3692377816662
 31
0.0
  0
LINE
  5
9B
330
47
100
AcDbEntity
  8
1
  6
Continuous
 62
     6
100
AcDbLine
 10
201.6500002807288
 20
330.3692377816662
 30
0.0
 11
201.6500002807301
 21
338.8692377816662
 31
0.0
  0
LINE
  5
9C
330
47
100
AcDbEntity
  8
1
  6
Continuous
 62
     2
100
AcDbLine
 10
-90.34999971927027
 20
330.3692377816662
 30
0.0
 11
-90.34999971927027
 21
325.3692377816661
 31
0.0
  0
LINE
  5
9D
330
47
100
AcDbEntity
  8
1
  6
Continuous
 62
     2
100
AcDbLine
 10
-85.3499997192693
 20
330.3692377816662
 30
0.0
 11
-90.34999971927027
 21
330.3692377816662
 31
0.0
  0
LINE
  5
9E
330
47
100
AcDbEntity
  8
1
  6
Continuous
 62
     2
100
AcDbLine
 10
-85.3499997192693
 20
325.3692377816661
 30
0.0
 11
-41.84999971927118
 21
325.3692377816661
 31
0.0
  0
LINE
  5
9F
330
47
100
AcDbEntity
  8
1
  6
Continuous
 62
     2
100
AcDbLine
 10
-85.3499997192693
 20
330.3692377816662
 30
0.0
 11
-85.3499997192693
 21
325.3692377816661
 31
0.0
  0
LINE
  5
A0
330
47
100
AcDbEntity
  8
1
  6
Continuous
 62
     2
100
AcDbLine
 10
158.1500002807288
 20
325.3692377816661
 30
0.0
 11
108.1500002807288
 21
325.3692377816661
 31
0.0
  0
LINE
  5
A1
330
47
100
AcDbEntity
  8
1
  6
Continuous
 62
     2
100
AcDbLine
 10
158.1500002807288
 20
325.3692377816661
 30
0.0
 11
158.1500002807288
 21
330.3692377816662
 31
0.0
  0
LINE
  5
A2
330
47
100
AcDbEntity
  8
1
  6
Continuous
 62
     2
100
AcDbLine
 10
108.1500002807288
 20
325.3692377816661
 30
0.0
 11
108.1500002807288
 21
330.3692377816662
 31
0.0
  0
LINE
  5
A3
330
47
100
AcDbEntity
  8
1
  6
Continuous
 62
     2
100
AcDbLine
 10
58.15000028072882
 20
325.3692377816661
 30
0.0
 11
108.1500002807288
 21
325.3692377816661
 31
0.0
  0
LINE
  5
A4
330
47
100
AcDbEntity
  8
1
  6
Continuous
 62
     2
100
AcDbLine
 10
58.15000028072882
 20
325.3692377816661
 30
0.0
 11
58.15000028072882
 21
330.3692377816662
 31
0.0
  0
LINE
  5
A5
330
47
100
AcDbEntity
  8
1
  6
Continuous
 62
     2
100
AcDbLine
 10
8.15000028072859
 20
325.3692377816661
 30
0.0
 11
58.15000028072882
 21
325.3692377816661
 31
0.0
  0
LINE
  5
A6
330
47
100
AcDbEntity
  8
1
  6
Continuous
 62
     2
100
AcDbLine
 10
8.15000028072859
 20
325.3692377816661
 30
0.0
 11
8.15000028072859
 21
330.3692377816662
 31
0.0
  0
LINE
  5
A7
330
47
100
AcDbEntity
  8
1
  6
Continuous
 62
     2
100
AcDbLine
 10
-41.84999971927118
 20
325.3692377816661
 30
0.0
 11
8.15000028072859
 21
325.3692377816661
 31
0.0
  0
LINE
  5
A8
330
47
100
AcDbEntity
  8
1
  6
Continuous
 62
     2
100
AcDbLine
 10
-41.84999971927118
 20
325.3692377816661
 30
0.0
 11
-41.84999971927118
 21
330.3692377816662
 31
0.0
  0
LINE
  5
A9
330
47
100
AcDbEntity
  8
1
  6
Continuous
 62
     6
100
AcDbLine
 10
-85.34999971926948
 20
380.3692377816664
 30
0.0
 11
-85.3499997192693
 21
330.3692377816662
 31
0.0
  0
LINE
  5
AA
330
47
100
AcDbEntity
  8
1
  6
Continuous
 62
     2
100
AcDbLine
 10
-90.34999971927027
 20
380.3692377816664
 30
0.0
 11
-90.34999971927027
 21
330.3692377816662
 31
0.0
  0
LINE
  5
AB
330
47
100
AcDbEntity
  8
1
  6
Continuous
 62
     2
100
AcDbLine
 10
-90.34999971927027
 20
380.3692377816664
 30
0.0
 11
-85.34999971926948
 21
380.3692377816664
 31
0.0
  0
LINE
  5
AC
330
47
100
AcDbEntity
  8
1
  6
Continuous
 62
     6
100
AcDbLine
 10
-85.3499997192697
 20
430.3692377816661
 30
0.0
 11
-85.34999971926948
 21
380.3692377816664
 31
0.0
  0
LINE
  5
AD
330
47
100
AcDbEntity
  8
1
  6
Continuous
 62
     2
100
AcDbLine
 10
-90.34999971927027
 20
430.3692377816661
 30
0.0
 11
-90.34999971927027
 21
380.3692377816664
 31
0.0
  0
LINE
  5
AE
330
47
100
AcDbEntity
  8
1
  6
Continuous
 62
     2
100
AcDbLine
 10
-90.34999971927027
 20
430.3692377816661
 30
0.0
 11
-85.3499997192697
 21
430.3692377816661
 31
0.0
  0
LINE
  5
AF
330
47
100
AcDbEntity
  8
1
  6
Continuous
 62
     6
100
AcDbLine
 10
-85.34999971927022
 20
480.3692377816662
 30
0.0
 11
-85.3499997192697
 21
430.3692377816661
 31
0.0
  0
LINE
  5
B0
330
47
100
AcDbEntity
  8
1
  6
Continuous
 62
     2
100
AcDbLine
 10
-90.34999971927027
 20
480.3692377816662
 30
0.0
 11
-90.34999971927027
 21
430.3692377816661
 31
0.0
  0
LINE
  5
B1
330
47
100
AcDbEntity
  8
1
  6
Continuous
 62
     2
100
AcDbLine
 10
-90.34999971927027
 20
480.3692377816662
 30
0.0
 11
-85.34999971927022
 21
480.3692377816662
 31
0.0
  0
LINE
  5
B2
330
47
100
AcDbEntity
  8
1
  6
Continuous
 62
     6
100
AcDbLine
 10
-85.34999971927027
 20
515.3692377816662
 30
0.0
 11
-85.34999971927022
 21
480.3692377816662
 31
0.0
  0
LINE
  5
B3
330
47
100
AcDbEntity
  8
1
  6
Continuous
 62
     2
100
AcDbLine
 10
-90.34999971927027
 20
535.3692377816662
 30
0.0
 11
-90.34999971927027
 21
480.3692377816662
 31
0.0
  0
LINE
  5
B4
330
47
100
AcDbEntity
  8
1
  6
Continuous
 62
     2
100
AcDbLine
 10
-90.34999971927027
 20
325.3692377816661
 30
0.0
 11
-85.3499997192693
 21
325.3692377816661
 31
0.0
  0
LINE
  5
B5
330
47
100
AcDbEntity
  8
1
  6
Continuous
 62
     2
100
AcDbLine
 10
58.15000028072882
 20
535.3692377816662
 30
0.0
 11
58.15000028072882
 21
526.1605459369649
 31
0.0
  0
LINE
  5
B6
330
47
100
AcDbEntity
  8
1
  6
Continuous
 62
     2
100
AcDbLine
 10
58.15000028072882
 20
535.3692377816662
 30
0.0
 11
-90.34999971927027
 21
535.3692377816662
 31
0.0
  0
LINE
  5
B7
330
47
100
AcDbEntity
  8
1
  6
Continuous
 62
     2
100
AcDbLine
 10
206.6500002807278
 20
330.3692377816662
 30
0.0
 11
206.6500002807278
 21
380.3692377816664
 31
0.0
  0
LINE
  5
B8
330
47
100
AcDbEntity
  8
1
  6
Continuous
 62
     2
100
AcDbLine
 10
206.6500002807278
 20
480.3692377816662
 30
0.0
 11
206.6500002807278
 21
535.3692377816662
 31
0.0
  0
LINE
  5
B9
330
47
100
AcDbEntity
  8
1
  6
Continuous
 62
     6
100
AcDbLine
 10
201.650000280728
 20
480.3692377816662
 30
0.0
 11
201.6500002807278
 21
515.3692377816662
 31
0.0
  0
LINE
  5
BA
330
47
100
AcDbEntity
  8
1
  6
Continuous
 62
     2
100
AcDbLine
 10
201.650000280728
 20
480.3692377816662
 30
0.0
 11
206.6500002807278
 21
480.3692377816662
 31
0.0
  0
LINE
  5
BB
330
47
100
AcDbEntity
  8
1
  6
Continuous
 62
     2
100
AcDbLine
 10
206.6500002807278
 20
430.3692377816661
 30
0.0
 11
206.6500002807278
 21
480.3692377816662
 31
0.0
  0
LINE
  5
BC
330
47
100
AcDbEntity
  8
1
  6
Continuous
 62
     6
100
AcDbLine
 10
201.6500002807292
 20
430.3692377816661
 30
0.0
 11
201.650000280728
 21
480.3692377816662
 31
0.0
  0
LINE
  5
BD
330
47
100
AcDbEntity
  8
1
  6
Continuous
 62
     2
100
AcDbLine
 10
201.6500002807292
 20
430.3692377816661
 30
0.0
 11
206.6500002807278
 21
430.3692377816661
 31
0.0
  0
LINE
  5
BE
330
47
100
AcDbEntity
  8
1
  6
Continuous
 62
     2
100
AcDbLine
 10
206.6500002807278
 20
380.3692377816664
 30
0.0
 11
206.6500002807278
 21
430.3692377816661
 31
0.0
  0
LINE
  5
BF
330
47
100
AcDbEntity
  8
1
  6
Continuous
 62
     6
100
AcDbLine
 10
201.6500002807297
 20
380.3692377816664
 30
0.0
 11
201.6500002807292
 21
430.3692377816661
 31
0.0
  0
LINE
  5
C0
330
47
100
AcDbEntity
  8
1
  6
Continuous
 62
     2
100
AcDbLine
 10
201.6500002807297
 20
380.3692377816664
 30
0.0
 11
206.6500002807278
 21
380.3692377816664
 31
0.0
  0
LINE
  5
C1
330
47
100
AcDbEntity
  8
1
  6
Continuous
 62
     6
100
AcDbLine
 10
201.6500002807278
 20
515.3692377816662
 30
0.0
 11
-85.34999971927027
 21
515.3692377816662
 31
0.0
  0
LINE
  5
C2
330
47
100
AcDbEntity
  8
1
  6
Continuous
 62
     2
100
AcDbLine
 10
206.6500002807278
 20
535.3692377816662
 30
0.0
 11
58.15000028072882
 21
535.3692377816662
 31
0.0
  0
LINE
  5
C3
330
47
100
AcDbEntity
  8
1
  6
Continuous
 62
     6
100
AcDbLine
 10
201.6500002807305
 20
347.3692377816662
 30
0.0
 11
201.6500002807297
 21
380.3692377816664
 31
0.0
  0
LINE
  5
C4
330
47
100
AcDbEntity
  8
1
  6
Continuous
 62
     2
100
AcDbLine
 10
201.6500002807288
 20
325.3692377816661
 30
0.0
 11
158.1500002807288
 21
325.3692377816661
 31
0.0
  0
LINE
  5
C5
330
47
100
AcDbEntity
  8
1
  6
Continuous
 62
     2
100
AcDbLine
 10
206.6500002807278
 20
325.3692377816661
 30
0.0
 11
201.6500002807288
 21
325.3692377816661
 31
0.0
  0
LINE
  5
C6
330
47
100
AcDbEntity
  8
1
  6
Continuous
 62
     2
100
AcDbLine
 10
206.6500002807278
 20
325.3692377816661
 30
0.0
 11
206.6500002807278
 21
330.3692377816662
 31
0.0
  0
LINE
  5
C7
330
47
100
AcDbEntity
  8
1
  6
Continuous
 62
     6
100
AcDbLine
 10
72.10519575397879
 20
347.3692377816662
 30
0.0
 11
108.5051957539787
 21
347.3692377816662
 31
0.0
  0
LINE
  5
C8
330
47
100
AcDbEntity
  8
1
  6
Continuous
 62
     2
100
AcDbLine
 10
201.6500002807288
 20
330.3692377816662
 30
0.0
 11
201.6500002807288
 21
325.3692377816661
 31
0.0
  0
LINE
  5
C9
330
47
100
AcDbEntity
  8
1
  6
Continuous
 62
     2
100
AcDbLine
 10
201.6500002807288
 20
330.3692377816662
 30
0.0
 11
206.6500002807278
 21
330.3692377816662
 31
0.0
  0
LINE
  5
CA
330
47
100
AcDbEntity
  8
1
  6
Continuous
 62
     6
100
AcDbLine
 10
108.1500002807288
 20
330.3692377816662
 30
0.0
 11
90.30519575397881
 21
330.3692377816662
 31
0.0
  0
LINE
  5
CB
330
47
100
AcDbEntity
  8
1
  6
Continuous
 62
     6
100
AcDbLine
 10
158.1500002807288
 20
330.3692377816662
 30
0.0
 11
201.6500002807288
 21
330.3692377816662
 31
0.0
  0
LINE
  5
CC
330
47
100
AcDbEntity
  8
1
  6
Continuous
 62
     6
100
AcDbLine
 10
8.15000028072859
 20
330.3692377816662
 30
0.0
 11
3.10519575397882
 21
330.3692377816662
 31
0.0
  0
LINE
  5
CD
330
47
100
AcDbEntity
  8
1
  6
Continuous
 62
     6
100
AcDbLine
 10
58.15000028072882
 20
330.3692377816662
 30
0.0
 11
72.10519575397879
 21
330.3692377816661
 31
0.0
  0
LINE
  5
CE
102
{ACAD_REACTORS
330
1B9
330
1BA
102
}
330
47
100
AcDbEntity
  8
0
  6
Continuous
 62
     2
100
AcDbLine
 10
79.6198216961256
 20
342.4417525378784
 30
0.0
 11
79.6198216961256
 21
343.0472878263852
 31
0.0
  0
LINE
  5
CF
102
{ACAD_REACTORS
330
1B9
330
1BA
102
}
330
47
100
AcDbEntity
  8
0
  6
Continuous
 62
     2
100
AcDbLine
 10
79.6198216961256
 20
339.6416179312471
 30
0.0
 11
79.6198216961256
 21
340.2234693379421
 31
0.0
  0
LINE
  5
D0
102
{ACAD_REACTORS
330
1BB
330
1BC
102
}
330
47
100
AcDbEntity
  8
0
  6
Continuous
 62
     2
100
AcDbLine
 10
102.2493081316048
 20
339.9312819993701
 30
0.0
 11
102.2493081316048
 21
337.6627377816826
 31
0.0
  0
LINE
  5
D1
102
{ACAD_REACTORS
330
1BB
330
1BC
102
}
330
47
100
AcDbEntity
  8
0
  6
Continuous
 62
     2
100
AcDbLine
 10
100.8682543526172
 20
340.7165473054931
 30
0.0
 11
104.2531998712459
 21
340.7165473054936
 31
0.0
  0
LINE
  5
D2
102
{ACAD_REACTORS
330
1BB
330
1BC
102
}
330
47
100
AcDbEntity
  8
0
  6
Continuous
 62
     2
100
AcDbLine
 10
104.2531998712459
 20
339.9312819993701
 30
0.0
 11
104.2531998712459
 21
340.7165473054936
 31
0.0
  0
LINE
  5
D3
102
{ACAD_REACTORS
330
1BB
330
1BC
102
}
330
47
100
AcDbEntity
  8
0
  6
Continuous
 62
     2
100
AcDbLine
 10
103.4421008337725
 20
339.9312819993701
 30
0.0
 11
104.2531998712459
 21
339.9312819993701
 31
0.0
  0
LINE
  5
D4
102
{ACAD_REACTORS
330
1BB
330
1BC
102
}
330
47
100
AcDbEntity
  8
0
  6
Continuous
 62
     2
100
AcDbLine
 10
103.4421008337725
 20
337.6627377816826
 30
0.0
 11
103.4421008337725
 21
339.9312819993701
 31
0.0
  0
LINE
  5
D5
102
{ACAD_REACTORS
330
1BB
330
1BC
102
}
330
47
100
AcDbEntity
  8
0
  6
Continuous
 62
     2
100
AcDbLine
 10
102.2493081316048
 20
337.6627377816826
 30
0.0
 11
103.4421008337725
 21
337.6627377816826
 31
0.0
  0
LINE
  5
D6
102
{ACAD_REACTORS
330
1B1
330
1B2
102
}
330
47
100
AcDbEntity
  8
0
  6
Continuous
 62
     2
100
AcDbLine
 10
101.5527171935403
 20
344.0757377816681
 30
0.0
 11
100.149992975791
 21
344.0757377816681
 31
0.0
  0
LINE
  5
D7
102
{ACAD_REACTORS
330
1B1
330
1B2
102
}
330
47
100
AcDbEntity
  8
0
  6
Continuous
 62
     2
100
AcDbLine
 10
101.5527171935403
 20
344.0757377816681
 30
0.0
 11
102.1538847154321
 21
343.3959144601125
 31
0.0
  0
LINE
  5
D8
102
{ACAD_REACTORS
330
1B1
330
1B2
102
}
330
47
100
AcDbEntity
  8
0
  6
Continuous
 62
     2
100
AcDbLine
 10
102.1538847154321
 20
343.3959144601125
 30
0.0
 11
102.7550522373249
 21
344.0757377816681
 31
0.0
  0
LINE
  5
D9
102
{ACAD_REACTORS
330
1B1
330
1B2
102
}
330
47
100
AcDbEntity
  8
0
  6
Continuous
 62
     2
100
AcDbLine
 10
102.8552468243056
 20
342.6027872516319
 30
0.0
 11
104.1577764550721
 21
344.0757377816681
 31
0.0
  0
LINE
  5
DA
102
{ACAD_REACTORS
330
1B1
330
1B2
102
}
330
47
100
AcDbEntity
  8
0
  6
Continuous
 62
     2
100
AcDbLine
 10
102.8552468243056
 20
342.6027872516319
 30
0.0
 11
104.2531998712459
 21
341.0219282578569
 31
0.0
  0
LINE
  5
DB
102
{ACAD_REACTORS
330
1B1
330
1B2
102
}
330
47
100
AcDbEntity
  8
0
  6
Continuous
 62
     2
100
AcDbLine
 10
102.8504756534976
 20
341.0219282578569
 30
0.0
 11
104.2531998712459
 21
341.0219282578569
 31
0.0
  0
LINE
  5
DC
102
{ACAD_REACTORS
330
1B1
330
1B2
102
}
330
47
100
AcDbEntity
  8
0
  6
Continuous
 62
     2
100
AcDbLine
 10
102.1538847154321
 20
341.8096600431505
 30
0.0
 11
102.8504756534976
 21
341.0219282578569
 31
0.0
  0
LINE
  5
DD
102
{ACAD_REACTORS
330
1AF
330
1B0
102
}
330
47
100
AcDbEntity
  8
0
  6
Continuous
 62
     2
100
AcDbLine
 10
98.69478587914841
 20
344.0757377816681
 30
0.0
 11
99.93529028940131
 21
344.0757377816681
 31
0.0
  0
LINE
  5
DE
102
{ACAD_REACTORS
330
1AF
330
1B0
102
}
330
47
100
AcDbEntity
  8
0
  6
Continuous
 62
     2
100
AcDbLine
 10
99.93529028940131
 20
344.0757377816681
 30
0.0
 11
99.93529028940131
 21
341.0219282578569
 31
0.0
  0
LINE
  5
DF
102
{ACAD_REACTORS
330
1AF
330
1B0
102
}
330
47
100
AcDbEntity
  8
0
  6
Continuous
 62
     2
100
AcDbLine
 10
98.69478587914841
 20
341.0219282578569
 30
0.0
 11
98.69478587914841
 21
344.0757377816681
 31
0.0
  0
LINE
  5
E0
102
{ACAD_REACTORS
330
1AD
330
1AE
102
}
330
47
100
AcDbEntity
  8
0
  6
Continuous
 62
     2
100
AcDbLine
 10
97.2264757966108
 20
338.8842615912071
 30
0.0
 11
97.5266410338032
 21
339.6520765571937
 31
0.0
  0
LINE
  5
E1
102
{ACAD_REACTORS
330
1AD
330
1AE
102
}
330
47
100
AcDbEntity
  8
0
  6
Continuous
 62
     2
100
AcDbLine
 10
96.74894019198999
 20
337.6627377816826
 30
0.0
 11
96.9604202454658
 21
338.2036983259004
 31
0.0
  0
LINE
  5
E2
102
{ACAD_REACTORS
330
1AD
330
1AE
102
}
330
47
100
AcDbEntity
  8
0
  6
Continuous
 62
     2
100
AcDbLine
 10
96.90638882867631
 20
340.7165473054936
 30
0.0
 11
95.508435781737
 21
337.6627377816826
 31
0.0
  0
LINE
  5
E3
102
{ACAD_REACTORS
330
1AD
330
1AE
102
}
330
47
100
AcDbEntity
  8
0
  6
Continuous
 62
     2
100
AcDbLine
 10
99.54484628586931
 20
337.6627377816826
 30
0.0
 11
98.30434187561539
 21
337.6627377816826
 31
0.0
  0
LINE
  5
E4
102
{ACAD_REACTORS
330
1AD
330
1AE
102
}
330
47
100
AcDbEntity
  8
0
  6
Continuous
 62
     2
100
AcDbLine
 10
96.9604202454658
 20
338.2036983259004
 30
0.0
 11
98.09286182213961
 21
338.2036983259004
 31
0.0
  0
LINE
  5
E5
102
{ACAD_REACTORS
330
1AB
330
1AC
102
}
330
47
100
AcDbEntity
  8
0
  6
Continuous
 62
     2
100
AcDbLine
 10
93.35092364255479
 20
339.9312819993701
 30
0.0
 11
94.1620226800294
 21
339.9312819993701
 31
0.0
  0
LINE
  5
E6
102
{ACAD_REACTORS
330
1AB
330
1AC
102
}
330
47
100
AcDbEntity
  8
0
  6
Continuous
 62
     2
100
AcDbLine
 10
96.16591441966841
 20
340.7165473054936
 30
0.0
 11
93.35092364255479
 21
340.7165473054936
 31
0.0
  0
LINE
  5
E7
102
{ACAD_REACTORS
330
1AB
330
1AC
102
}
330
47
100
AcDbEntity
  8
0
  6
Continuous
 62
     2
100
AcDbLine
 10
96.16591441966841
 20
339.9312819993701
 30
0.0
 11
96.16591441966841
 21
340.7165473054936
 31
0.0
  0
LINE
  5
E8
102
{ACAD_REACTORS
330
1AB
330
1AC
102
}
330
47
100
AcDbEntity
  8
0
  6
Continuous
 62
     2
100
AcDbLine
 10
95.35481538219591
 20
339.9312819993701
 30
0.0
 11
96.16591441966841
 21
339.9312819993701
 31
0.0
  0
LINE
  5
E9
102
{ACAD_REACTORS
330
1AB
330
1AC
102
}
330
47
100
AcDbEntity
  8
0
  6
Continuous
 62
     2
100
AcDbLine
 10
95.35481538219591
 20
337.6627377816826
 30
0.0
 11
95.35481538219591
 21
339.9312819993701
 31
0.0
  0
LINE
  5
EA
102
{ACAD_REACTORS
330
1A9
330
1AA
102
}
330
47
100
AcDbEntity
  8
0
  6
Continuous
 62
     2
100
AcDbLine
 10
96.02293022629391
 20
341.0219282578569
 30
0.0
 11
96.02293022629391
 21
342.3307037680615
 31
0.0
  0
LINE
  5
EB
102
{ACAD_REACTORS
330
1A9
330
1AA
102
}
330
47
100
AcDbEntity
  8
0
  6
Continuous
 62
     2
100
AcDbLine
 10
94.8301375241274
 20
344.0757377816681
 30
0.0
 11
94.8301375241274
 21
341.0219282578569
 31
0.0
  0
LINE
  5
EC
102
{ACAD_REACTORS
330
1A9
330
1AA
102
}
330
47
100
AcDbEntity
  8
0
  6
Continuous
 62
     2
100
AcDbLine
 10
96.02293022629391
 20
344.0757377816681
 30
0.0
 11
94.8301375241274
 21
344.0757377816681
 31
0.0
  0
LINE
  5
ED
102
{ACAD_REACTORS
330
1A9
330
1AA
102
}
330
47
100
AcDbEntity
  8
0
  6
Continuous
 62
     2
100
AcDbLine
 10
97.26343463654791
 20
344.0757377816681
 30
0.0
 11
97.26343463654791
 21
342.7669622714628
 31
0.0
  0
LINE
  5
EE
102
{ACAD_REACTORS
330
1A7
330
1A8
102
}
330
47
100
AcDbEntity
  8
0
  6
Continuous
 62
     2
100
AcDbLine
 10
89.5816987037077
 20
340.7165473054936
 30
0.0
 11
89.5816987037077
 21
337.6627377816826
 31
0.0
  0
LINE
  5
EF
102
{ACAD_REACTORS
330
1A7
330
1A8
102
}
330
47
100
AcDbEntity
  8
0
  6
Continuous
 62
     2
100
AcDbLine
 10
90.7744914058753
 20
340.7165473054936
 30
0.0
 11
89.5816987037077
 21
340.7165473054936
 31
0.0
  0
LINE
  5
F0
102
{ACAD_REACTORS
330
1A7
330
1A8
102
}
330
47
100
AcDbEntity
  8
0
  6
Continuous
 62
     2
100
AcDbLine
 10
92.01499581612819
 20
337.6627377816826
 30
0.0
 11
93.20778851829459
 21
337.6627377816826
 31
0.0
  0
LINE
  5
F1
102
{ACAD_REACTORS
330
1A7
330
1A8
102
}
330
47
100
AcDbEntity
  8
0
  6
Continuous
 62
     2
100
AcDbLine
 10
89.5816987037077
 20
337.6627377816826
 30
0.0
 11
90.7744914058753
 21
337.6627377816826
 31
0.0
  0
LINE
  5
F2
102
{ACAD_REACTORS
330
1B7
330
1B8
102
}
330
47
100
AcDbEntity
  8
0
  6
Continuous
 62
     2
100
AcDbLine
 10
93.25565115726681
 20
342.8978398224833
 30
0.0
 11
93.25565115726681
 21
343.3777241762251
 31
0.0
  0
LINE
  5
F3
102
{ACAD_REACTORS
330
1B7
330
1B8
102
}
330
47
100
AcDbEntity
  8
0
  6
Continuous
 62
     2
100
AcDbLine
 10
94.59157898369449
 20
342.8978398224833
 30
0.0
 11
93.25565115726681
 21
342.8978398224833
 31
0.0
  0
LINE
  5
F4
102
{ACAD_REACTORS
330
1B7
330
1B8
102
}
330
47
100
AcDbEntity
  8
0
  6
Continuous
 62
     2
100
AcDbLine
 10
94.59157898369449
 20
342.1998262170411
 30
0.0
 11
94.59157898369449
 21
342.8978398224833
 31
0.0
  0
LINE
  5
F5
102
{ACAD_REACTORS
330
1B7
330
1B8
102
}
330
47
100
AcDbEntity
  8
0
  6
Continuous
 62
     2
100
AcDbLine
 10
93.25565115726681
 20
342.1998262170411
 30
0.0
 11
94.59157898369449
 21
342.1998262170411
 31
0.0
  0
LINE
  5
F6
102
{ACAD_REACTORS
330
1A5
330
1A6
102
}
330
47
100
AcDbEntity
  8
0
  6
Continuous
 62
     2
100
AcDbLine
 10
89.77269646693989
 20
344.0757377816681
 30
0.0
 11
89.77269646693989
 21
341.0219282578569
 31
0.0
  0
LINE
  5
F7
102
{ACAD_REACTORS
330
1A5
330
1A6
102
}
330
47
100
AcDbEntity
  8
0
  6
Continuous
 62
     2
100
AcDbLine
 10
89.77269646693989
 20
341.0219282578569
 30
0.0
 11
88.57990376477349
 21
341.0219282578569
 31
0.0
  0
LINE
  5
F8
102
{ACAD_REACTORS
330
1A5
330
1A6
102
}
330
47
100
AcDbEntity
  8
0
  6
Continuous
 62
     2
100
AcDbLine
 10
88.57990376477349
 20
341.0219282578569
 30
0.0
 11
88.57990376477349
 21
342.1562003667007
 31
0.0
  0
LINE
  5
F9
102
{ACAD_REACTORS
330
1A5
330
1A6
102
}
330
47
100
AcDbEntity
  8
0
  6
Continuous
 62
     2
100
AcDbLine
 10
87.53024618686601
 20
341.0219282578569
 30
0.0
 11
86.33745348469941
 21
341.0219282578569
 31
0.0
  0
LINE
  5
FA
102
{ACAD_REACTORS
330
1A5
330
1A6
102
}
330
47
100
AcDbEntity
  8
0
  6
Continuous
 62
     2
100
AcDbLine
 10
86.33745348469941
 20
344.0757377816681
 30
0.0
 11
87.53024618686601
 21
344.0757377816681
 31
0.0
  0
LINE
  5
FB
102
{ACAD_REACTORS
330
1A5
330
1A6
102
}
330
47
100
AcDbEntity
  8
0
  6
Continuous
 62
     2
100
AcDbLine
 10
87.53024618686601
 20
344.0757377816681
 30
0.0
 11
87.53024618686601
 21
343.0069044483334
 31
0.0
  0
LINE
  5
FC
102
{ACAD_REACTORS
330
1A5
330
1A6
102
}
330
47
100
AcDbEntity
  8
0
  6
Continuous
 62
     2
100
AcDbLine
 10
87.53024618686601
 20
343.0069044483334
 30
0.0
 11
88.57990376477349
 21
343.0069044483334
 31
0.0
  0
LINE
  5
FD
102
{ACAD_REACTORS
330
1B3
330
1B4
102
}
330
47
100
AcDbEntity
  8
0
  6
Continuous
 62
     2
100
AcDbLine
 10
84.38127345314581
 20
343.412631936228
 30
0.0
 11
84.69856851468771
 21
343.412631936228
 31
0.0
  0
LINE
  5
FE
102
{ACAD_REACTORS
330
1B3
330
1B4
102
}
330
47
100
AcDbEntity
  8
0
  6
Continuous
 62
     2
100
AcDbLine
 10
84.38127345314581
 20
342.7069042868857
 30
0.0
 11
84.69856851468771
 21
342.7069042868857
 31
0.0
  0
LINE
  5
FF
102
{ACAD_REACTORS
330
1B3
330
1B4
102
}
330
47
100
AcDbEntity
  8
0
  6
Continuous
 62
     2
100
AcDbLine
 10
83.14076904289169
 20
344.0757377816681
 30
0.0
 11
83.14076904289169
 21
341.0219282578569
 31
0.0
  0
LINE
  5
100
102
{ACAD_REACTORS
330
1B3
330
1B4
102
}
330
47
100
AcDbEntity
  8
0
  6
Continuous
 62
     2
100
AcDbLine
 10
83.14076904289169
 20
344.0757377816681
 30
0.0
 11
85.14004104092609
 21
344.0757377816681
 31
0.0
  0
LINE
  5
101
102
{ACAD_REACTORS
330
1B3
330
1B4
102
}
330
47
100
AcDbEntity
  8
0
  6
Continuous
 62
     2
100
AcDbLine
 10
84.38127345314581
 20
341.9650064990007
 30
0.0
 11
85.14004104092609
 21
341.9650064990007
 31
0.0
  0
LINE
  5
102
102
{ACAD_REACTORS
330
1B9
330
1BA
102
}
330
47
100
AcDbEntity
  8
0
  6
Continuous
 62
     2
100
AcDbLine
 10
77.044273009595
 20
343.0474653030333
 30
0.0
 11
77.044273009595
 21
338.6910102603162
 31
0.0
  0
LINE
  5
103
102
{ACAD_REACTORS
330
1B9
330
1BA
102
}
330
47
100
AcDbEntity
  8
0
  6
Continuous
 62
     2
100
AcDbLine
 10
77.35998993267069
 20
343.3631822261094
 30
0.0
 11
78.83582319368031
 21
343.3631822261094
 31
0.0
  0
LINE
  5
104
102
{ACAD_REACTORS
330
1B9
330
1BA
102
}
330
47
100
AcDbEntity
  8
0
  6
Continuous
 62
     2
100
AcDbLine
 10
79.1515401167569
 20
342.4434406839728
 30
0.0
 11
79.1515401167569
 21
343.0474653030333
 31
0.0
  0
LINE
  5
105
102
{ACAD_REACTORS
330
1B9
330
1BA
102
}
330
47
100
AcDbEntity
  8
0
  6
Continuous
 62
     2
100
AcDbLine
 10
79.1515401167569
 20
338.6910102603162
 30
0.0
 11
79.1515401167569
 21
340.2217811918478
 31
0.0
  0
LINE
  5
106
102
{ACAD_REACTORS
330
1B9
330
1BA
102
}
330
47
100
AcDbEntity
  8
0
  6
Continuous
 62
     2
100
AcDbLine
 10
82.239407346641
 20
337.6627377816826
 30
0.0
 11
76.7660952559242
 21
337.6627377816826
 31
0.0
  0
LINE
  5
107
102
{ACAD_REACTORS
330
1B9
330
1BA
102
}
330
47
100
AcDbEntity
  8
0
  6
Continuous
 62
     2
100
AcDbLine
 10
82.66365196202489
 20
343.6514931662661
 30
0.0
 11
82.66365196202489
 21
338.0869823970659
 31
0.0
  0
LINE
  5
108
102
{ACAD_REACTORS
330
1B9
330
1BA
102
}
330
47
100
AcDbEntity
  8
0
  6
Continuous
 62
     2
100
AcDbLine
 10
76.7660952559242
 20
344.0757377816499
 30
0.0
 11
82.239407346641
 21
344.0757377816499
 31
0.0
  0
LINE
  5
109
102
{ACAD_REACTORS
330
1B9
330
1BA
102
}
330
47
100
AcDbEntity
  8
0
  6
Continuous
 62
     2
100
AcDbLine
 10
76.3418506405414
 20
343.6514931662661
 30
0.0
 11
76.3418506405414
 21
338.0869823970659
 31
0.0
  0
LINE
  5
10A
102
{ACAD_REACTORS
330
1B9
330
1BA
102
}
330
47
100
AcDbEntity
  8
0
  6
Continuous
 62
     2
100
AcDbLine
 10
78.83582319368031
 20
338.3752933372394
 30
0.0
 11
77.35998993267069
 21
338.3752933372394
 31
0.0
  0
LINE
  5
10B
102
{ACAD_REACTORS
330
1B3
330
1B4
102
}
330
47
100
AcDbEntity
  8
0
  6
Continuous
 62
     2
100
AcDbLine
 10
84.38127345314581
 20
341.0219282578569
 30
0.0
 11
84.38127345314581
 21
341.9650064990007
 31
0.0
  0
LINE
  5
10C
102
{ACAD_REACTORS
330
1B3
330
1B4
102
}
330
47
100
AcDbEntity
  8
0
  6
Continuous
 62
     2
100
AcDbLine
 10
83.14076904289169
 20
341.0219282578569
 30
0.0
 11
84.38127345314581
 21
341.0219282578569
 31
0.0
  0
LINE
  5
10D
102
{ACAD_REACTORS
330
1B3
330
1B4
102
}
330
47
100
AcDbEntity
  8
0
  6
Continuous
 62
     2
100
AcDbLine
 10
84.38127345314581
 20
342.7069042868857
 30
0.0
 11
84.38127345314581
 21
343.412631936228
 31
0.0
  0
LINE
  5
10E
102
{ACAD_REACTORS
330
1A5
330
1A6
102
}
330
47
100
AcDbEntity
  8
0
  6
Continuous
 62
     2
100
AcDbLine
 10
86.33745348469941
 20
344.0757377816681
 30
0.0
 11
86.33745348469941
 21
341.0219282578569
 31
0.0
  0
LINE
  5
10F
102
{ACAD_REACTORS
330
1A5
330
1A6
102
}
330
47
100
AcDbEntity
  8
0
  6
Continuous
 62
     2
100
AcDbLine
 10
87.53024618686601
 20
342.1562003667007
 30
0.0
 11
87.53024618686601
 21
341.0219282578569
 31
0.0
  0
LINE
  5
110
102
{ACAD_REACTORS
330
1A5
330
1A6
102
}
330
47
100
AcDbEntity
  8
0
  6
Continuous
 62
     2
100
AcDbLine
 10
88.57990376477349
 20
342.1562003667007
 30
0.0
 11
87.53024618686601
 21
342.1562003667007
 31
0.0
  0
LINE
  5
111
102
{ACAD_REACTORS
330
1A5
330
1A6
102
}
330
47
100
AcDbEntity
  8
0
  6
Continuous
 62
     2
100
AcDbLine
 10
88.57990376477349
 20
344.0757377816681
 30
0.0
 11
89.77269646693989
 21
344.0757377816681
 31
0.0
  0
LINE
  5
112
102
{ACAD_REACTORS
330
1A5
330
1A6
102
}
330
47
100
AcDbEntity
  8
0
  6
Continuous
 62
     2
100
AcDbLine
 10
88.57990376477349
 20
343.0069044483334
 30
0.0
 11
88.57990376477349
 21
344.0757377816681
 31
0.0
  0
LINE
  5
113
102
{ACAD_REACTORS
330
1B7
330
1B8
102
}
330
47
100
AcDbEntity
  8
0
  6
Continuous
 62
     2
100
AcDbLine
 10
94.59157898369449
 20
343.3777241762251
 30
0.0
 11
94.59157898369449
 21
344.0757377816681
 31
0.0
  0
LINE
  5
114
102
{ACAD_REACTORS
330
1B7
330
1B8
102
}
330
47
100
AcDbEntity
  8
0
  6
Continuous
 62
     2
100
AcDbLine
 10
91.4412592599135
 20
344.0757377816681
 30
0.0
 11
94.59157898369449
 21
344.0757377816681
 31
0.0
  0
LINE
  5
115
102
{ACAD_REACTORS
330
1B7
330
1B8
102
}
330
47
100
AcDbEntity
  8
0
  6
Continuous
 62
     2
100
AcDbLine
 10
91.4412592599135
 20
341.0219282578569
 30
0.0
 11
94.59157898369449
 21
341.0219282578569
 31
0.0
  0
LINE
  5
116
102
{ACAD_REACTORS
330
1B7
330
1B8
102
}
330
47
100
AcDbEntity
  8
0
  6
Continuous
 62
     2
100
AcDbLine
 10
94.59157898369449
 20
341.0219282578569
 30
0.0
 11
94.59157898369449
 21
341.7199418632994
 31
0.0
  0
LINE
  5
117
102
{ACAD_REACTORS
330
1B7
330
1B8
102
}
330
47
100
AcDbEntity
  8
0
  6
Continuous
 62
     2
100
AcDbLine
 10
94.59157898369449
 20
341.7199418632994
 30
0.0
 11
93.25565115726681
 21
341.7199418632994
 31
0.0
  0
LINE
  5
118
102
{ACAD_REACTORS
330
1B7
330
1B8
102
}
330
47
100
AcDbEntity
  8
0
  6
Continuous
 62
     2
100
AcDbLine
 10
93.25565115726681
 20
341.7199418632994
 30
0.0
 11
93.25565115726681
 21
342.1998262170411
 31
0.0
  0
LINE
  5
119
102
{ACAD_REACTORS
330
1B7
330
1B8
102
}
330
47
100
AcDbEntity
  8
0
  6
Continuous
 62
     2
100
AcDbLine
 10
93.25565115726681
 20
343.3777241762251
 30
0.0
 11
94.59157898369449
 21
343.3777241762251
 31
0.0
  0
LINE
  5
11A
102
{ACAD_REACTORS
330
1A7
330
1A8
102
}
330
47
100
AcDbEntity
  8
0
  6
Continuous
 62
     2
100
AcDbLine
 10
90.7744914058753
 20
337.6627377816826
 30
0.0
 11
90.7744914058753
 21
338.9715132918872
 31
0.0
  0
LINE
  5
11B
102
{ACAD_REACTORS
330
1A7
330
1A8
102
}
330
47
100
AcDbEntity
  8
0
  6
Continuous
 62
     2
100
AcDbLine
 10
90.7744914058753
 20
338.9715132918872
 30
0.0
 11
92.01499581612819
 21
337.6627377816826
 31
0.0
  0
LINE
  5
11C
102
{ACAD_REACTORS
330
1A7
330
1A8
102
}
330
47
100
AcDbEntity
  8
0
  6
Continuous
 62
     2
100
AcDbLine
 10
93.20778851829459
 20
337.6627377816826
 30
0.0
 11
93.20778851829459
 21
340.7165473054936
 31
0.0
  0
LINE
  5
11D
102
{ACAD_REACTORS
330
1A7
330
1A8
102
}
330
47
100
AcDbEntity
  8
0
  6
Continuous
 62
     2
100
AcDbLine
 10
93.20778851829459
 20
340.7165473054936
 30
0.0
 11
92.01499581612819
 21
340.7165473054936
 31
0.0
  0
LINE
  5
11E
102
{ACAD_REACTORS
330
1A7
330
1A8
102
}
330
47
100
AcDbEntity
  8
0
  6
Continuous
 62
     2
100
AcDbLine
 10
92.01499581612819
 20
340.7165473054936
 30
0.0
 11
92.01499581612819
 21
339.4077717952886
 31
0.0
  0
LINE
  5
11F
102
{ACAD_REACTORS
330
1A7
330
1A8
102
}
330
47
100
AcDbEntity
  8
0
  6
Continuous
 62
     2
100
AcDbLine
 10
92.01499581612819
 20
339.4077717952886
 30
0.0
 11
90.7744914058753
 21
340.7165473054936
 31
0.0
  0
LINE
  5
120
102
{ACAD_REACTORS
330
1A9
330
1AA
102
}
330
47
100
AcDbEntity
  8
0
  6
Continuous
 62
     2
100
AcDbLine
 10
96.02293022629391
 20
342.3307037680615
 30
0.0
 11
97.26343463654791
 21
341.0219282578569
 31
0.0
  0
LINE
  5
121
102
{ACAD_REACTORS
330
1A9
330
1AA
102
}
330
47
100
AcDbEntity
  8
0
  6
Continuous
 62
     2
100
AcDbLine
 10
97.26343463654791
 20
341.0219282578569
 30
0.0
 11
98.45622733871451
 21
341.0219282578569
 31
0.0
  0
LINE
  5
122
102
{ACAD_REACTORS
330
1A9
330
1AA
102
}
330
47
100
AcDbEntity
  8
0
  6
Continuous
 62
     2
100
AcDbLine
 10
98.45622733871451
 20
341.0219282578569
 30
0.0
 11
98.45622733871451
 21
344.0757377816681
 31
0.0
  0
LINE
  5
123
102
{ACAD_REACTORS
330
1A9
330
1AA
102
}
330
47
100
AcDbEntity
  8
0
  6
Continuous
 62
     2
100
AcDbLine
 10
98.45622733871451
 20
344.0757377816681
 30
0.0
 11
97.26343463654791
 21
344.0757377816681
 31
0.0
  0
LINE
  5
124
102
{ACAD_REACTORS
330
1A9
330
1AA
102
}
330
47
100
AcDbEntity
  8
0
  6
Continuous
 62
     2
100
AcDbLine
 10
97.26343463654791
 20
342.7669622714628
 30
0.0
 11
96.02293022629391
 21
344.0757377816681
 31
0.0
  0
LINE
  5
125
102
{ACAD_REACTORS
330
1A9
330
1AA
102
}
330
47
100
AcDbEntity
  8
0
  6
Continuous
 62
     2
100
AcDbLine
 10
94.8301375241274
 20
341.0219282578569
 30
0.0
 11
96.02293022629391
 21
341.0219282578569
 31
0.0
  0
LINE
  5
126
102
{ACAD_REACTORS
330
1AB
330
1AC
102
}
330
47
100
AcDbEntity
  8
0
  6
Continuous
 62
     2
100
AcDbLine
 10
93.35092364255479
 20
340.7165473054936
 30
0.0
 11
93.35092364255479
 21
339.9312819993701
 31
0.0
  0
LINE
  5
127
102
{ACAD_REACTORS
330
1AB
330
1AC
102
}
330
47
100
AcDbEntity
  8
0
  6
Continuous
 62
     2
100
AcDbLine
 10
94.1620226800294
 20
339.9312819993701
 30
0.0
 11
94.1620226800294
 21
337.6627377816826
 31
0.0
  0
LINE
  5
128
102
{ACAD_REACTORS
330
1AB
330
1AC
102
}
330
47
100
AcDbEntity
  8
0
  6
Continuous
 62
     2
100
AcDbLine
 10
94.1620226800294
 20
337.6627377816826
 30
0.0
 11
95.35481538219591
 21
337.6627377816826
 31
0.0
  0
LINE
  5
129
102
{ACAD_REACTORS
330
1AD
330
1AE
102
}
330
47
100
AcDbEntity
  8
0
  6
Continuous
 62
     2
100
AcDbLine
 10
98.30434187561539
 20
337.6627377816826
 30
0.0
 11
98.09286182213961
 21
338.2036983259004
 31
0.0
  0
LINE
  5
12A
102
{ACAD_REACTORS
330
1AD
330
1AE
102
}
330
47
100
AcDbEntity
  8
0
  6
Continuous
 62
     2
100
AcDbLine
 10
98.14689323892901
 20
340.7165473054936
 30
0.0
 11
99.54484628586931
 21
337.6627377816826
 31
0.0
  0
LINE
  5
12B
102
{ACAD_REACTORS
330
1AD
330
1AE
102
}
330
47
100
AcDbEntity
  8
0
  6
Continuous
 62
     2
100
AcDbLine
 10
96.90638882867631
 20
340.7165473054936
 30
0.0
 11
98.14689323892901
 21
340.7165473054936
 31
0.0
  0
LINE
  5
12C
102
{ACAD_REACTORS
330
1AD
330
1AE
102
}
330
47
100
AcDbEntity
  8
0
  6
Continuous
 62
     2
100
AcDbLine
 10
95.508435781737
 20
337.6627377816826
 30
0.0
 11
96.74894019198999
 21
337.6627377816826
 31
0.0
  0
LINE
  5
12D
102
{ACAD_REACTORS
330
1AD
330
1AE
102
}
330
47
100
AcDbEntity
  8
0
  6
Continuous
 62
     2
100
AcDbLine
 10
97.2264757966108
 20
338.8842615912071
 30
0.0
 11
97.8268062709933
 21
338.8842615912071
 31
0.0
  0
LINE
  5
12E
102
{ACAD_REACTORS
330
1AD
330
1AE
102
}
330
47
100
AcDbEntity
  8
0
  6
Continuous
 62
     2
100
AcDbLine
 10
97.8268062709933
 20
338.8842615912071
 30
0.0
 11
97.5266410338032
 21
339.6520765571937
 31
0.0
  0
LINE
  5
12F
102
{ACAD_REACTORS
330
1AF
330
1B0
102
}
330
47
100
AcDbEntity
  8
0
  6
Continuous
 62
     2
100
AcDbLine
 10
99.93529028940131
 20
341.0219282578569
 30
0.0
 11
98.69478587914841
 21
341.0219282578569
 31
0.0
  0
LINE
  5
130
102
{ACAD_REACTORS
330
1B1
330
1B2
102
}
330
47
100
AcDbEntity
  8
0
  6
Continuous
 62
     2
100
AcDbLine
 10
101.4572937773664
 20
341.0219282578569
 30
0.0
 11
100.0545695596182
 21
341.0219282578569
 31
0.0
  0
LINE
  5
131
102
{ACAD_REACTORS
330
1B1
330
1B2
102
}
330
47
100
AcDbEntity
  8
0
  6
Continuous
 62
     2
100
AcDbLine
 10
101.4572937773664
 20
341.0219282578569
 30
0.0
 11
102.1538847154321
 21
341.8096600431505
 31
0.0
  0
LINE
  5
132
102
{ACAD_REACTORS
330
1B1
330
1B2
102
}
330
47
100
AcDbEntity
  8
0
  6
Continuous
 62
     2
100
AcDbLine
 10
102.7550522373249
 20
344.0757377816681
 30
0.0
 11
104.1577764550721
 21
344.0757377816681
 31
0.0
  0
LINE
  5
133
102
{ACAD_REACTORS
330
1B1
330
1B2
102
}
330
47
100
AcDbEntity
  8
0
  6
Continuous
 62
     2
100
AcDbLine
 10
100.149992975791
 20
344.0757377816681
 30
0.0
 11
101.4525226065585
 21
342.6027872516319
 31
0.0
  0
LINE
  5
134
102
{ACAD_REACTORS
330
1B1
330
1B2
102
}
330
47
100
AcDbEntity
  8
0
  6
Continuous
 62
     2
100
AcDbLine
 10
100.0545695596182
 20
341.0219282578569
 30
0.0
 11
101.4525226065585
 21
342.6027872516319
 31
0.0
  0
LINE
  5
135
102
{ACAD_REACTORS
330
1BB
330
1BC
102
}
330
47
100
AcDbEntity
  8
0
  6
Continuous
 62
     2
100
AcDbLine
 10
101.9153261749981
 20
338.7097581898462
 30
0.0
 11
101.9153261749981
 21
337.8372411830428
 31
0.0
  0
LINE
  5
136
102
{ACAD_REACTORS
330
1BB
330
1BC
102
}
330
47
100
AcDbEntity
  8
0
  6
Continuous
 62
     2
100
AcDbLine
 10
101.1456688320367
 20
339.9312819993701
 30
0.0
 11
102.2493081316048
 21
339.9312819993701
 31
0.0
  0
LINE
  5
137
102
{ACAD_REACTORS
330
1BD
330
1BE
102
}
330
47
100
AcDbEntity
  8
0
  6
Continuous
 62
     2
100
AcDbLine
 10
85.8126246957462
 20
338.7097581898466
 30
0.0
 11
85.8126246957462
 21
337.8372411830434
 31
0.0
  0
LINE
  5
138
102
{ACAD_REACTORS
330
1BD
330
1BE
102
}
330
47
100
AcDbEntity
  8
0
  6
Continuous
 62
     2
100
AcDbLine
 10
85.8126246957462
 20
339.6695268973296
 30
0.0
 11
85.8126246957462
 21
340.5420439041328
 31
0.0
  0
LINE
  5
139
330
47
100
AcDbEntity
  8
1
  6
Continuous
 62
     7
100
AcDbLine
 10
201.6500002807301
 20
338.8692377816662
 30
0.0
 11
108.5051957539787
 21
338.8692377816662
 31
0.0
  0
LINE
  5
13A
330
47
100
AcDbEntity
  8
1
  6
Continuous
 62
     6
100
AcDbLine
 10
3.10519575397882
 20
330.3692377816662
 30
0.0
 11
-41.84999971927118
 21
330.3692377816662
 31
0.0
  0
LINE
  5
13B
330
47
100
AcDbEntity
  8
1
  6
Continuous
 62
     7
100
AcDbLine
 10
192.7315919990513
 20
355.8692377816662
 30
0.0
 11
192.7315919990513
 21
347.3692377816662
 31
0.0
  0
LINE
  5
13C
330
47
100
AcDbEntity
  8
1
  6
Continuous
 62
     7
100
AcDbLine
 10
166.2315919990517
 20
355.8692377816662
 30
0.0
 11
166.2315919990517
 21
347.3692377816662
 31
0.0
  0
LINE
  5
13D
330
47
100
AcDbEntity
  8
1
  6
Continuous
 62
     7
100
AcDbLine
 10
108.5051957539787
 20
347.3692377816662
 30
0.0
 11
108.5051957539787
 21
355.8692377816662
 31
0.0
  0
LINE
  5
13E
330
47
100
AcDbEntity
  8
1
  6
Continuous
 62
     7
100
AcDbLine
 10
72.10519575397879
 20
347.3692377816662
 30
0.0
 11
72.10519575397879
 21
355.8692377816662
 31
0.0
  0
LINE
  5
13F
330
47
100
AcDbEntity
  8
1
  6
Continuous
 62
     6
100
AcDbLine
 10
108.5051957539787
 20
347.3692377816662
 30
0.0
 11
201.6500002807305
 21
347.3692377816662
 31
0.0
  0
LINE
  5
140
330
47
100
AcDbEntity
  8
1
  6
Continuous
 62
     7
100
AcDbLine
 10
136.4051957539788
 20
338.8692377816661
 30
0.0
 11
136.4051957539788
 21
347.3692377816662
 31
0.0
  0
LINE
  5
141
330
47
100
AcDbEntity
  8
1
  6
PHANTOM
 62
     2
100
AcDbLine
 10
87.5918506405414
 20
351.4942377816661
 30
0.0
 11
82.0918506405414
 21
351.4942377816661
 31
0.0
  0
LINE
  5
142
330
47
100
AcDbEntity
  8
1
  6
PHANTOM
 62
     2
100
AcDbLine
 10
84.8418506405414
 20
354.2442377816661
 30
0.0
 11
84.8418506405414
 21
348.7442377816661
 31
0.0
  0
LINE
  5
143
330
47
100
AcDbEntity
  8
1
  6
DOT_CENTER
 62
     2
100
AcDbLine
 10
76.0918506405414
 20
351.4942377816661
 30
0.0
 11
81.5918506405414
 21
351.4942377816661
 31
0.0
  0
ARC
  5
144
102
{ACAD_REACTORS
330
1BD
330
1BE
102
}
330
47
100
AcDbEntity
  8
0
  6
Continuous
 62
     2
100
AcDbCircle
 10
84.4766967786284
 20
335.876961598332
 30
0.0
 40
4.852596863497986
100
AcDbArc
 50
74.0200087416471
 51
84.84185523037509
  0
ARC
  5
145
102
{ACAD_REACTORS
330
1BD
330
1BE
102
}
330
47
100
AcDbEntity
  8
0
  6
Continuous
 62
     2
100
AcDbCircle
 10
85.05273738738211
 20
339.0327219542162
 30
0.0
 40
0.9059297849853228
100
AcDbArc
 50
71.55192388185348
 51
113.3722778881261
  0
ARC
  5
146
102
{ACAD_REACTORS
330
1BD
330
1BE
102
}
330
47
100
AcDbEntity
  8
0
  6
Continuous
 62
     2
100
AcDbCircle
 10
84.89629735468009
 20
338.9845711142493
 30
0.0
 40
0.5115800601948034
100
AcDbArc
 50
208.5214732576956
 51
246.6277221118223
  0
ARC
  5
147
102
{ACAD_REACTORS
330
1BD
330
1BE
102
}
330
47
100
AcDbEntity
  8
0
  6
Continuous
 62
     2
100
AcDbCircle
 10
85.05273738738211
 20
339.3465631329593
 30
0.0
 40
0.9059297849848149
100
AcDbArc
 50
246.6277221118682
 51
288.4480761181601
  0
ARC
  5
148
102
{ACAD_REACTORS
330
1BD
330
1BE
102
}
330
47
100
AcDbEntity
  8
0
  6
Continuous
 62
     2
100
AcDbCircle
 10
84.63456965372131
 20
340.6001089089965
 30
0.0
 40
2.227384008972656
100
AcDbArc
 50
288.4480761181335
 51
301.9309089499589
  0
ARC
  5
149
102
{ACAD_REACTORS
330
1B9
330
1BA
102
}
330
47
100
AcDbEntity
  8
0
  6
Continuous
 62
     2
100
AcDbCircle
 10
79.40949592111451
 20
341.3326109379105
 30
0.0
 40
0.9118481501443819
100
AcDbArc
 50
295.3740086781787
 51
64.62599132180748
  0
ARC
  5
14A
102
{ACAD_REACTORS
330
1B9
330
1BA
102
}
330
47
100
AcDbEntity
  8
0
  6
Continuous
 62
     2
100
AcDbCircle
 10
79.93553861920239
 20
343.0472878263852
 30
0.0
 40
0.3157169230760142
100
AcDbArc
 50
90.18896704254595
 51
180.0
  0
ARC
  5
14B
102
{ACAD_REACTORS
330
1BB
330
1BC
102
}
330
47
100
AcDbEntity
  8
0
  6
Continuous
 62
     2
100
AcDbCircle
 10
101.1456688320367
 20
338.976758992544
 30
0.0
 40
0.9545230068261503
100
AcDbArc
 50
90.0
 51
109.3371432194309
  0
ARC
  5
14C
102
{ACAD_REACTORS
330
1BB
330
1BC
102
}
330
47
100
AcDbEntity
  8
0
  6
Continuous
 62
     2
100
AcDbCircle
 10
101.3763560920144
 20
339.1896425435879
 30
0.0
 40
0.941059735334837
100
AcDbArc
 50
151.4785267423704
 51
208.5214732576691
  0
ARC
  5
14D
102
{ACAD_REACTORS
330
1BB
330
1BC
102
}
330
47
100
AcDbEntity
  8
0
  6
Continuous
 62
     2
100
AcDbCircle
 10
101.1554388666361
 20
339.3465631329593
 30
0.0
 40
0.9059297849851757
100
AcDbArc
 50
246.6277221118154
 51
288.4480761180828
  0
ARC
  5
14E
102
{ACAD_REACTORS
330
1BB
330
1BC
102
}
330
47
100
AcDbEntity
  8
0
  6
Continuous
 62
     2
100
AcDbCircle
 10
100.7372711329742
 20
340.6001089089959
 30
0.0
 40
2.227384008972665
100
AcDbArc
 50
288.4480761181342
 51
301.9309089499406
  0
ARC
  5
14F
102
{ACAD_REACTORS
330
1BB
330
1BC
102
}
330
47
100
AcDbEntity
  8
0
  6
Continuous
 62
     2
100
AcDbCircle
 10
100.5793982578814
 20
342.5023234888442
 30
0.0
 40
4.85259686349871
100
AcDbArc
 50
275.1581447696363
 51
285.9799912583386
  0
ARC
  5
150
102
{ACAD_REACTORS
330
1BB
330
1BC
102
}
330
47
100
AcDbEntity
  8
0
  6
Continuous
 62
     2
100
AcDbCircle
 10
100.8682543526172
 20
339.3024329056227
 30
0.0
 40
1.639695123940464
100
AcDbArc
 50
195.0618917771052
 51
275.1581447696762
  0
ARC
  5
151
102
{ACAD_REACTORS
330
1B3
330
1B4
102
}
330
47
100
AcDbEntity
  8
0
  6
Continuous
 62
     2
100
AcDbCircle
 10
85.14004104092609
 20
343.0203721403344
 30
0.0
 40
1.055365641333708
100
AcDbArc
 50
270.0
 51
90.0
  0
ARC
  5
152
102
{ACAD_REACTORS
330
1B9
330
1BA
102
}
330
47
100
AcDbEntity
  8
0
  6
Continuous
 62
     2
100
AcDbCircle
 10
77.35998993267069
 20
338.6910102603162
 30
0.0
 40
0.3157169230756836
100
AcDbArc
 50
180.0
 51
270.0
  0
ARC
  5
153
102
{ACAD_REACTORS
330
1B9
330
1BA
102
}
330
47
100
AcDbEntity
  8
0
  6
Continuous
 62
     2
100
AcDbCircle
 10
78.83582319368031
 20
343.0474653030333
 30
0.0
 40
0.315716923076593
100
AcDbArc
 50
0.0
 51
90.0
  0
ARC
  5
154
102
{ACAD_REACTORS
330
1B9
330
1BA
102
}
330
47
100
AcDbEntity
  8
0
  6
Continuous
 62
     2
100
AcDbCircle
 10
78.83582319368031
 20
342.4434406839728
 30
0.0
 40
0.3157169230762746
100
AcDbArc
 50
295.1944106485265
 51
0.0
  0
ARC
  5
155
102
{ACAD_REACTORS
330
1B9
330
1BA
102
}
330
47
100
AcDbEntity
  8
0
  6
Continuous
 62
     2
100
AcDbCircle
 10
78.83582319368031
 20
338.6910102603162
 30
0.0
 40
0.3157169230768204
100
AcDbArc
 50
270.0
 51
0.0
  0
ARC
  5
156
102
{ACAD_REACTORS
330
1B9
330
1BA
102
}
330
47
100
AcDbEntity
  8
0
  6
Continuous
 62
     2
100
AcDbCircle
 10
76.7660952559242
 20
343.6514931662661
 30
0.0
 40
0.4242446153837705
100
AcDbArc
 50
90.0
 51
180.0
  0
ARC
  5
157
102
{ACAD_REACTORS
330
1B9
330
1BA
102
}
330
47
100
AcDbEntity
  8
0
  6
Continuous
 62
     2
100
AcDbCircle
 10
82.239407346641
 20
343.6514931662661
 30
0.0
 40
0.4242446153838841
100
AcDbArc
 50
0.0
 51
90.0
  0
ARC
  5
158
102
{ACAD_REACTORS
330
1B9
330
1BA
102
}
330
47
100
AcDbEntity
  8
0
  6
Continuous
 62
     2
100
AcDbCircle
 10
82.239407346641
 20
338.0869823970659
 30
0.0
 40
0.4242446153833157
100
AcDbArc
 50
270.0
 51
0.0
  0
ARC
  5
159
102
{ACAD_REACTORS
330
1B7
330
1B8
102
}
330
47
100
AcDbEntity
  8
0
  6
Continuous
 62
     2
100
AcDbCircle
 10
91.45779123373251
 20
342.5488330197621
 30
0.0
 40
0.7717997786796373
100
AcDbArc
 50
321.8795802028437
 51
38.12041979716621
  0
ARC
  5
15A
102
{ACAD_REACTORS
330
1B7
330
1B8
102
}
330
47
100
AcDbEntity
  8
0
  6
Continuous
 62
     2
100
AcDbCircle
 10
91.65753127007869
 20
342.3921018416418
 30
0.0
 40
0.5179085730135072
100
AcDbArc
 50
218.120419797161
 51
321.8795802028467
  0
ARC
  5
15B
102
{ACAD_REACTORS
330
1B5
330
1B6
102
}
330
47
100
AcDbEntity
  8
0
  6
Continuous
 62
     2
100
AcDbCircle
 10
87.9775236811185
 20
339.1896425435879
 30
0.0
 40
1.458034083652129
100
AcDbArc
 50
297.5481481756985
 51
62.45185182429637
  0
ARC
  5
15C
102
{ACAD_REACTORS
330
1B5
330
1B6
102
}
330
47
100
AcDbEntity
  8
0
  6
Continuous
 62
     2
100
AcDbCircle
 10
87.4156438974519
 20
339.1896425435879
 30
0.0
 40
1.458034083651364
100
AcDbArc
 50
117.548148175665
 51
242.4518518243402
  0
ARC
  5
15D
102
{ACAD_REACTORS
330
1B5
330
1B6
102
}
330
47
100
AcDbEntity
  8
0
  6
Continuous
 62
     2
100
AcDbCircle
 10
87.6965837892852
 20
338.6510675332851
 30
0.0
 40
2.065479772208492
100
AcDbArc
 50
62.45185182430527
 51
117.5481481756675
  0
ARC
  5
15E
102
{ACAD_REACTORS
330
1B5
330
1B6
102
}
330
47
100
AcDbEntity
  8
0
  6
Continuous
 62
     2
100
AcDbCircle
 10
87.6965837892852
 20
339.7282175538911
 30
0.0
 40
2.065479772208534
100
AcDbArc
 50
242.4518518243405
 51
297.5481481756867
  0
ARC
  5
15F
102
{ACAD_REACTORS
330
1B7
330
1B8
102
}
330
47
100
AcDbEntity
  8
0
  6
Continuous
 62
     2
100
AcDbCircle
 10
91.85727130642499
 20
342.5488330197621
 30
0.0
 40
0.7717997786797426
100
AcDbArc
 50
141.8795802028338
 51
218.1204197971562
  0
ARC
  5
160
102
{ACAD_REACTORS
330
1B7
330
1B8
102
}
330
47
100
AcDbEntity
  8
0
  6
Continuous
 62
     2
100
AcDbCircle
 10
91.65753127007869
 20
342.7055641978826
 30
0.0
 40
0.5179085730135967
100
AcDbArc
 50
38.12041979715324
 51
141.879580202839
  0
ARC
  5
161
102
{ACAD_REACTORS
330
1B9
330
1BA
102
}
330
47
100
AcDbEntity
  8
0
  6
Continuous
 62
     2
100
AcDbCircle
 10
76.7660952559242
 20
338.0869823970659
 30
0.0
 40
0.4242446153828041
100
AcDbArc
 50
180.0
 51
270.0
  0
ARC
  5
162
102
{ACAD_REACTORS
330
1B9
330
1BA
102
}
330
47
100
AcDbEntity
  8
0
  6
Continuous
 62
     2
100
AcDbCircle
 10
78.83582319368031
 20
340.2217811918478
 30
0.0
 40
0.315716923076593
100
AcDbArc
 50
0.0
 51
64.8055893514515
  0
ARC
  5
163
102
{ACAD_REACTORS
330
1B9
330
1BA
102
}
330
47
100
AcDbEntity
  8
0
  6
Continuous
 62
     2
100
AcDbCircle
 10
79.3584076412553
 20
341.3326109379105
 30
0.0
 40
0.9118975235575889
100
AcDbArc
 50
115.194410648529
 51
244.8055893514878
  0
ARC
  5
164
102
{ACAD_REACTORS
330
1B9
330
1BA
102
}
330
47
100
AcDbEntity
  8
0
  6
Continuous
 62
     2
100
AcDbCircle
 10
77.35998993267069
 20
343.0474653030333
 30
0.0
 40
0.3157169230761383
100
AcDbArc
 50
90.0
 51
180.0
  0
ARC
  5
165
102
{ACAD_REACTORS
330
1B3
330
1B4
102
}
330
47
100
AcDbEntity
  8
0
  6
Continuous
 62
     2
100
AcDbCircle
 10
84.69856851468771
 20
343.0597681115569
 30
0.0
 40
0.3528638246712035
100
AcDbArc
 50
270.0
 51
90.0
  0
ARC
  5
166
102
{ACAD_REACTORS
330
1B7
330
1B8
102
}
330
47
100
AcDbEntity
  8
0
  6
Continuous
 62
     2
100
AcDbCircle
 10
91.4412592599135
 20
342.5488330197621
 30
0.0
 40
1.526904761905996
100
AcDbArc
 50
90.0
 51
270.0
  0
ARC
  5
167
102
{ACAD_REACTORS
330
1BB
330
1BC
102
}
330
47
100
AcDbEntity
  8
0
  6
Continuous
 62
     2
100
AcDbCircle
 10
100.8682543526172
 20
339.0768521815529
 30
0.0
 40
1.639695123940214
100
AcDbArc
 50
90.0
 51
164.9381082228967
  0
ARC
  5
168
102
{ACAD_REACTORS
330
1BB
330
1BC
102
}
330
47
100
AcDbEntity
  8
0
  6
Continuous
 62
     2
100
AcDbCircle
 10
100.4491265091556
 20
339.1896425435879
 30
0.0
 40
1.205656168392958
100
AcDbArc
 50
164.9381082229106
 51
195.0618917771024
  0
ARC
  5
169
102
{ACAD_REACTORS
330
1BB
330
1BC
102
}
330
47
100
AcDbEntity
  8
0
  6
Continuous
 62
     2
100
AcDbCircle
 10
100.998998833933
 20
338.9845711142493
 30
0.0
 40
0.5115800601959674
100
AcDbArc
 50
208.5214732576754
 51
246.6277221118399
  0
ARC
  5
16A
102
{ACAD_REACTORS
330
1BB
330
1BC
102
}
330
47
100
AcDbEntity
  8
0
  6
Continuous
 62
     2
100
AcDbCircle
 10
100.998998833933
 20
339.3947139729269
 30
0.0
 40
0.5115800601944143
100
AcDbArc
 50
109.3371432194853
 51
151.4785267424365
  0
ARC
  5
16B
102
{ACAD_REACTORS
330
1B9
330
1BA
102
}
330
47
100
AcDbEntity
  8
0
  6
Continuous
 62
     2
100
AcDbCircle
 10
79.93553861920239
 20
339.6416179312471
 30
0.0
 40
0.315716923076792
100
AcDbArc
 50
180.0
 51
269.8110329574542
  0
ARC
  5
16C
102
{ACAD_REACTORS
330
1B9
330
1BA
102
}
330
47
100
AcDbEntity
  8
0
  6
Continuous
 62
     2
100
AcDbCircle
 10
79.94115475451241
 20
341.344452878816
 30
0.0
 40
2.018561131933266
100
AcDbArc
 50
269.8110329575858
 51
90.18896704241416
  0
ARC
  5
16D
102
{ACAD_REACTORS
330
1B9
330
1BA
102
}
330
47
100
AcDbEntity
  8
0
  6
Continuous
 62
     2
100
AcDbCircle
 10
79.93553861920239
 20
342.4417525378784
 30
0.0
 40
0.315716923076792
100
AcDbArc
 50
180.0
 51
244.625991321657
  0
ARC
  5
16E
102
{ACAD_REACTORS
330
1B9
330
1BA
102
}
330
47
100
AcDbEntity
  8
0
  6
Continuous
 62
     2
100
AcDbCircle
 10
79.93553861920239
 20
340.2234693379421
 30
0.0
 40
0.3157169230765842
100
AcDbArc
 50
115.3740086783474
 51
180.0
  0
ARC
  5
16F
102
{ACAD_REACTORS
330
1BD
330
1BE
102
}
330
47
100
AcDbEntity
  8
0
  6
Continuous
 62
     2
100
AcDbCircle
 10
84.7655528733643
 20
339.0768521815529
 30
0.0
 40
1.63969512394062
100
AcDbArc
 50
84.84185523036271
 51
164.9381082228884
  0
ARC
  5
170
102
{ACAD_REACTORS
330
1BD
330
1BE
102
}
330
47
100
AcDbEntity
  8
0
  6
Continuous
 62
     2
100
AcDbCircle
 10
84.3464250299015
 20
339.1896425435879
 30
0.0
 40
1.2056561683909
100
AcDbArc
 50
164.9381082228843
 51
195.0618917770948
  0
ARC
  5
171
102
{ACAD_REACTORS
330
1BD
330
1BE
102
}
330
47
100
AcDbEntity
  8
0
  6
Continuous
 62
     2
100
AcDbCircle
 10
84.7655528733643
 20
339.3024329056227
 30
0.0
 40
1.63969512393938
100
AcDbArc
 50
195.0618917770886
 51
275.1581447696393
  0
ARC
  5
172
102
{ACAD_REACTORS
330
1BD
330
1BE
102
}
330
47
100
AcDbEntity
  8
0
  6
Continuous
 62
     2
100
AcDbCircle
 10
84.4766967786284
 20
342.5023234888442
 30
0.0
 40
4.85259686349811
100
AcDbArc
 50
275.158144769625
 51
285.9799912583529
  0
ARC
  5
173
102
{ACAD_REACTORS
330
1BD
330
1BE
102
}
330
47
100
AcDbEntity
  8
0
  6
Continuous
 62
     2
100
AcDbCircle
 10
85.2736546127604
 20
339.1896425435879
 30
0.0
 40
0.9410597353332545
100
AcDbArc
 50
151.4785267422669
 51
208.5214732577118
  0
ARC
  5
174
102
{ACAD_REACTORS
330
1BD
330
1BE
102
}
330
47
100
AcDbEntity
  8
0
  6
Continuous
 62
     2
100
AcDbCircle
 10
84.89629735468009
 20
339.3947139729269
 30
0.0
 40
0.5115800601948517
100
AcDbArc
 50
113.3722778882004
 51
151.4785267423044
  0
ARC
  5
175
102
{ACAD_REACTORS
330
1BD
330
1BE
102
}
330
47
100
AcDbEntity
  8
0
  6
Continuous
 62
     2
100
AcDbCircle
 10
84.63456965372131
 20
337.7791761781797
 30
0.0
 40
2.227384008973501
100
AcDbArc
 50
58.06909105004111
 51
71.55192388186653
  0
ARC
  5
176
102
{ACAD_REACTORS
330
1B5
330
1B6
102
}
330
47
100
AcDbEntity
  8
0
  6
Continuous
 62
     2
100
AcDbCircle
 10
87.6965837892852
 20
339.3463737217084
 30
0.0
 40
0.5179085730132297
100
AcDbArc
 50
38.12041979713714
 51
141.8795802028687
  0
ARC
  5
177
102
{ACAD_REACTORS
330
1B5
330
1B6
102
}
330
47
100
AcDbEntity
  8
0
  6
Continuous
 62
     2
100
AcDbCircle
 10
87.8963238256313
 20
339.1896425435879
 30
0.0
 40
0.7717997786793755
100
AcDbArc
 50
141.8795802028446
 51
218.1204197971787
  0
ARC
  5
178
102
{ACAD_REACTORS
330
1B5
330
1B6
102
}
330
47
100
AcDbEntity
  8
0
  6
Continuous
 62
     2
100
AcDbCircle
 10
87.6965837892852
 20
339.0329113654678
 30
0.0
 40
0.5179085730137529
100
AcDbArc
 50
218.1204197971956
 51
321.8795802027985
  0
ARC
  5
179
102
{ACAD_REACTORS
330
1B5
330
1B6
102
}
330
47
100
AcDbEntity
  8
0
  6
Continuous
 62
     2
100
AcDbCircle
 10
87.49684375293879
 20
339.1896425435879
 30
0.0
 40
0.7717997786798
100
AcDbArc
 50
321.8795802028318
 51
38.12041979714499
  0
CIRCLE
  5
17A
330
47
100
AcDbEntity
  8
1
  6
Continuous
 62
     2
100
AcDbCircle
 10
84.8418506405414
 20
351.4942377816661
 30
0.0
 40
2.5
  0
CIRCLE
  5
17B
330
47
100
AcDbEntity
  8
1
  6
Continuous
 62
     2
100
AcDbCircle
 10
84.8418506405414
 20
351.4942377816661
 30
0.0
 40
1.249999999999915
  0
CIRCLE
  5
17C
102
{ACAD_REACTORS
330
1B9
330
1BA
102
}
330
47
100
AcDbEntity
  8
0
  6
Continuous
 62
     2
100
AcDbCircle
 10
79.3856809064417
 20
341.3326109379105
 30
0.0
 40
0.4709789327785074
  0
MTEXT
  5
17E
330
47
100
AcDbEntity
  8
1
 62
     3
100
AcDbMText
 10
-85.3449319331994
 20
517.160545936965
 30
0.0
 40
1.8
 41
0.0
 71
     7
 72
     1
  3
Weitergabe sowie Vervielf\U+00e4ltigung dieses Dokuments, Verwertung und \PMitteilung seines Inhalts sind verboten, soweit nicht ausdr\U+00fccklich gestattet. \PZuwiderhandlungen verpflichten zu Schadenersatz. Alle Rechte f\U+00fcr den Fall\Pder Pat
  1
ent-, Gebrauchsmuster- oder Designeintragung vorbehalten.
  7
CONVERTER_11
 73
     1
 44
0.99639855942377
  0
MTEXT
  5
17F
330
47
100
AcDbEntity
  8
1
 62
     3
100
AcDbMText
 10
97.5081779055887
 20
517.160545936965
 30
0.0
 40
1.8
 41
0.0
 71
     7
 72
     1
  3
Transfer or duplication of this document as well as the utilisation or\Pcommunication of its content are not permitted unless express consent\Pis granted. Violations give rise to claims for damages. All rights reserved\Pin case of patent, utility mo
  1
del or design patent registrations.
  7
CONVERTER_11
 73
     1
 44
0.99639855942377
  0
TEXT
  5
180
330
47
100
AcDbEntity
  8
1
 62
     2
100
AcDbText
 10
91.30519575397861
 20
331.6102205666746
 30
0.0
 40
1.8
  1
of
 41
0.9
  7
CONVERTER_11
100
AcDbText
  0
TEXT
  5
181
330
47
100
AcDbEntity
  8
1
 62
     2
100
AcDbText
 10
73.10519575397879
 20
331.6102205666746
 30
0.0
 40
1.8
  1
page
 41
0.9
  7
CONVERTER_11
100
AcDbText
  0
TEXT
  5
182
330
47
100
AcDbEntity
  8
1
 62
     2
100
AcDbText
 10
81.7514607243208
 20
331.5699891278642
 30
0.0
 40
1.8
  1
1
 41
0.9
  7
CONVERTER_11
100
AcDbText
  0
TEXT
  5
183
330
47
100
AcDbEntity
  8
1
 62
     2
100
AcDbText
 10
96.5405045637923
 20
331.6192377816661
 30
0.0
 40
1.8
  1
1
 41
0.9
  7
CONVERTER_11
100
AcDbText
  0
MTEXT
  5
185
330
47
100
AcDbEntity
  8
1
 62
     7
100
AcDbMText
 10
155.0775980173543
 20
333.6192377816665
 30
0.0
 40
3.0
 41
0.0
 71
     5
 72
     1
  1
D-QTC 1,5-TWIN
  7
CONVERTER_12
 73
     1
 44
1.20048019207683
  0
MTEXT
  5
186
330
47
100
AcDbEntity
  8
1
 62
     2
100
AcDbMText
 10
109.5051957539787
 20
337.8692377816662
 30
0.0
 40
1.8
 41
0.0
 71
     1
 72
     1
  1
description
  7
CONVERTER_11
 73
     1
 44
1.20048019207683
  0
MTEXT
  5
187
330
47
100
AcDbEntity
  8
1
 62
     3
100
AcDbMText
 10
98.3051957539787
 20
351.4942377816662
 30
0.0
 40
2.5
 41
0.0
 71
     5
 72
     1
  1
DIN A4
  7
CONVERTER_11
 73
     1
 44
1.20048019207683
  0
MTEXT
  5
188
330
47
100
AcDbEntity
  8
1
 62
     7
100
AcDbMText
 10
-87.84999971927027
 20
352.8692377816662
 30
0.0
 40
3.5
 41
0.0
 71
     5
 72
     1
  1
D
  7
CONVERTER_11
 73
     1
 44
1.20048019207683
  0
MTEXT
  5
189
330
47
100
AcDbEntity
  8
1
 62
     7
100
AcDbMText
 10
-87.84999971927027
 20
405.3692377816662
 30
0.0
 40
3.5
 41
0.0
 71
     5
 72
     1
  1
C
  7
CONVERTER_11
 73
     1
 44
1.20048019207683
  0
MTEXT
  5
18A
330
47
100
AcDbEntity
  8
1
 62
     7
100
AcDbMText
 10
-87.84999971927027
 20
455.3692377816662
 30
0.0
 40
3.5
 41
0.0
 71
     5
 72
     1
  1
B
  7
CONVERTER_11
 73
     1
 44
1.20048019207683
  0
MTEXT
  5
18B
330
47
100
AcDbEntity
  8
1
 62
     7
100
AcDbMText
 10
-87.84999971927027
 20
507.8692377816662
 30
0.0
 40
3.5
 41
0.0
 71
     5
 72
     1
  1
A
  7
CONVERTER_11
 73
     1
 44
1.20048019207683
  0
MTEXT
  5
18C
330
47
100
AcDbEntity
  8
1
 62
     7
100
AcDbMText
 10
182.400000280728
 20
327.8692377816661
 30
0.0
 40
3.5
 41
0.0
 71
     5
 72
     1
  1
6
  7
CONVERTER_11
 73
     1
 44
1.20048019207683
  0
MTEXT
  5
18D
330
47
100
AcDbEntity
  8
1
 62
     7
100
AcDbMText
 10
133.1500002807288
 20
327.8692377816661
 30
0.0
 40
3.5
 41
0.0
 71
     5
 72
     1
  1
5
  7
CONVERTER_11
 73
     1
 44
1.20048019207683
  0
MTEXT
  5
18E
330
47
100
AcDbEntity
  8
1
 62
     7
100
AcDbMText
 10
83.1500002807287
 20
327.8692377816661
 30
0.0
 40
3.5
 41
0.0
 71
     5
 72
     1
  1
4
  7
CONVERTER_11
 73
     1
 44
1.20048019207683
  0
MTEXT
  5
18F
330
47
100
AcDbEntity
  8
1
 62
     7
100
AcDbMText
 10
33.15000028072882
 20
327.8692377816661
 30
0.0
 40
3.5
 41
0.0
 71
     5
 72
     1
  1
3
  7
CONVERTER_11
 73
     1
 44
1.20048019207683
  0
MTEXT
  5
190
330
47
100
AcDbEntity
  8
1
 62
     7
100
AcDbMText
 10
-16.84999971927118
 20
327.8692377816661
 30
0.0
 40
3.5
 41
0.0
 71
     5
 72
     1
  1
2
  7
CONVERTER_11
 73
     1
 44
1.20048019207683
  0
MTEXT
  5
191
330
47
100
AcDbEntity
  8
1
 62
     7
100
AcDbMText
 10
-66.09999971927078
 20
327.8692377816661
 30
0.0
 40
3.5
 41
0.0
 71
     5
 72
     1
  1
1
  7
CONVERTER_11
 73
     1
 44
1.20048019207683
  0
MTEXT
  5
192
330
47
100
AcDbEntity
  8
1
 62
     7
100
AcDbMText
 10
204.1500002807278
 20
352.8692377816662
 30
0.0
 40
3.5
 41
0.0
 71
     5
 72
     1
  1
D
  7
CONVERTER_11
 73
     1
 44
1.20048019207683
  0
MTEXT
  5
193
330
47
100
AcDbEntity
  8
1
 62
     7
100
AcDbMText
 10
204.1500002807278
 20
455.3692377816682
 30
0.0
 40
3.5
 41
0.0
 71
     5
 72
     1
  1
B
  7
CONVERTER_11
 73
     1
 44
1.20048019207683
  0
MTEXT
  5
194
330
47
100
AcDbEntity
  8
1
 62
     7
100
AcDbMText
 10
204.1500002807278
 20
507.8692377816662
 30
0.0
 40
3.5
 41
0.0
 71
     5
 72
     1
  1
A
  7
CONVERTER_11
 73
     1
 44
1.20048019207683
  0
MTEXT
  5
195
330
47
100
AcDbEntity
  8
1
 62
     7
100
AcDbMText
 10
204.1500002807278
 20
405.3692377816682
 30
0.0
 40
3.5
 41
0.0
 71
     5
 72
     1
  1
C
  7
CONVERTER_11
 73
     1
 44
1.20048019207683
  0
MTEXT
  5
196
330
47
100
AcDbEntity
  8
1
 62
     2
100
AcDbMText
 10
37.66718102893128
 20
343.1192377816661
 30
0.0
 40
2.0
 41
0.0
 71
     5
 72
     1
  1
General Information\P- Simplified representation\P- Document excluded from change process\P- Linear dimensions [mm]
  7
CONVERTER_11
 73
     1
 44
1.20048019207683
  0
TEXT
  5
197
330
47
100
AcDbEntity
  8
1
 62
     7
100
AcDbText
 10
110.0051957539785
 20
340.1692377816661
 30
0.0
 40
2.5
  1
3205190
 41
0.81
  7
CONVERTER_12
100
AcDbText
  0
MTEXT
  5
198
330
47
100
AcDbEntity
  8
1
 62
     2
100
AcDbMText
 10
109.6051957539788
 20
346.3692377816662
 30
0.0
 40
1.8
 41
0.0
 71
     1
 72
     1
  1
ident.-No.
  7
CONVERTER_11
 73
     1
 44
1.20048019207683
  0
MTEXT
  5
199
330
47
100
AcDbEntity
  8
1
 62
     2
100
AcDbMText
 10
193.8315919990515
 20
354.8692377816662
 30
0.0
 40
1.8
 41
0.0
 71
     1
 72
     1
  1
scale
  7
CONVERTER_11
 73
     1
 44
1.20048019207683
  0
MTEXT
  5
19B
330
47
100
AcDbEntity
  8
1
 62
     3
100
AcDbMText
 10
197.1907961398911
 20
348.6692377816663
 30
0.0
 40
2.5
 41
0.0
 71
     8
 72
     1
  1
1:1
  7
CONVERTER_13
 73
     1
 44
1.32052821128451
  0
TEXT
  5
19C
330
47
100
AcDbEntity
  8
1
 62
     7
100
AcDbText
 10
109.6051957539788
 20
348.6692377816661
 30
0.0
 40
2.5
  1
00317980
 41
0.81
  7
CONVERTER_12
100
AcDbText
  0
MTEXT
  5
19E
330
47
100
AcDbEntity
  8
1
 62
     2
100
AcDbMText
 10
109.6051957539788
 20
354.8692377816662
 30
0.0
 40
1.8
 41
0.0
 71
     1
 72
     1
  1
document-No. / RI
  7
CONVERTER_14
 73
     1
 44
1.32052821128451
  0
TEXT
  5
19F
330
47
100
AcDbEntity
  8
1
 62
     3
100
AcDbText
 10
137.4051957539788
 20
340.1692377816661
 30
0.0
 40
2.5
  1
TECDOC 2D_Productdrawing
 41
0.81
  7
CONVERTER_12
100
AcDbText
  0
MTEXT
  5
1A0
330
47
100
AcDbEntity
  8
1
 62
     2
100
AcDbMText
 10
137.4051957539788
 20
346.3692377816661
 30
0.0
 40
1.8
 41
0.0
 71
     1
 72
     1
  1
document-type
  7
CONVERTER_11
 73
     1
 44
1.20048019207683
  0
MTEXT
  5
1A1
330
47
100
AcDbEntity
  8
1
 62
     2
100
AcDbMText
 10
167.2315919990517
 20
354.8692377816661
 30
0.0
 40
1.8
 41
0.0
 71
     1
 72
     1
  1
date
  7
CONVERTER_11
 73
     1
 44
1.32052821128451
  0
TEXT
  5
1A2
330
47
100
AcDbEntity
  8
1
 62
     3
100
AcDbText
 10
167.2315919990517
 20
348.6692377816661
 30
0.0
 40
2.5
  1
16.12.2017
 41
0.81
  7
CONVERTER_12
100
AcDbText
  0
TEXT
  5
1A3
330
47
100
AcDbEntity
  8
1
 62
     7
100
AcDbText
 10
129.6351079730346
 20
348.6692377816661
 30
0.0
 40
2.5
  1
01
 41
0.81
  7
CONVERTER_12
100
AcDbText
  0
TEXT
  5
1A4
330
47
100
AcDbEntity
  8
1
 62
     7
100
AcDbText
 10
127.4787434759926
 20
348.6692377816661
 30
0.0
 40
2.5
  1
/
 41
0.9
  7
CONVERTER_11
100
AcDbText
  0
HATCH
  5
1A5
330
47
100
AcDbEntity
  8
1
  6
Continuous
 62
     2
100
AcDbHatch
 10
0.0
 20
0.0
 30
0.0
210
0.0
220
0.0
230
1.0
  2
_USER
 70
     0
 71
     1
 91
        1
 92
        1
 93
       12
 72
     1
 10
89.77269646693989
 20
341.0219282578569
 11
88.57990376477349
 21
341.0219282578569
 72
     1
 10
88.57990376477349
 20
341.0219282578569
 11
88.57990376477349
 21
342.1562003667007
 72
     1
 10
88.57990376477349
 20
342.1562003667007
 11
87.53024618686601
 21
342.1562003667007
 72
     1
 10
87.53024618686601
 20
342.1562003667007
 11
87.53024618686601
 21
341.0219282578569
 72
     1
 10
87.53024618686601
 20
341.0219282578569
 11
86.33745348469941
 21
341.0219282578569
 72
     1
 10
86.33745348469941
 20
341.0219282578569
 11
86.33745348469941
 21
344.0757377816681
 72
     1
 10
86.33745348469941
 20
344.0757377816681
 11
87.53024618686601
 21
344.0757377816681
 72
     1
 10
87.53024618686601
 20
344.0757377816681
 11
87.53024618686601
 21
343.0069044483334
 72
     1
 10
87.53024618686601
 20
343.0069044483334
 11
88.57990376477349
 21
343.0069044483334
 72
     1
 10
88.57990376477349
 20
343.0069044483334
 11
88.57990376477349
 21
344.0757377816681
 72
     1
 10
88.57990376477349
 20
344.0757377816681
 11
89.77269646693989
 21
344.0757377816681
 72
     1
 10
89.77269646693989
 20
344.0757377816681
 11
89.77269646693989
 21
341.0219282578569
 97
       12
330
111
330
112
330
FC
330
FB
330
FA
330
10E
330
F9
330
10F
330
110
330
F8
330
F7
330
F6
 75
     1
 76
     0
 52
45.0
 41
0.1
 77
     0
 78
     1
 53
45.0
 43
0.0
 44
0.0
 45
-0.0707106781186548
 46
0.0707106781186548
 79
     0
 98
        1
 10
0.0
 20
0.0
  0
HATCH
  5
1A6
330
47
100
AcDbEntity
  8
1
  6
Continuous
 62
     2
100
AcDbHatch
 10
0.0
 20
0.0
 30
0.0
210
0.0
220
0.0
230
1.0
  2
_USER
 70
     0
 71
     1
 91
        1
 92
        1
 93
       12
 72
     1
 10
89.77269646693989
 20
341.0219282578569
 11
88.57990376477349
 21
341.0219282578569
 72
     1
 10
88.57990376477349
 20
341.0219282578569
 11
88.57990376477349
 21
342.1562003667007
 72
     1
 10
88.57990376477349
 20
342.1562003667007
 11
87.53024618686601
 21
342.1562003667007
 72
     1
 10
87.53024618686601
 20
342.1562003667007
 11
87.53024618686601
 21
341.0219282578569
 72
     1
 10
87.53024618686601
 20
341.0219282578569
 11
86.33745348469941
 21
341.0219282578569
 72
     1
 10
86.33745348469941
 20
341.0219282578569
 11
86.33745348469941
 21
344.0757377816681
 72
     1
 10
86.33745348469941
 20
344.0757377816681
 11
87.53024618686601
 21
344.0757377816681
 72
     1
 10
87.53024618686601
 20
344.0757377816681
 11
87.53024618686601
 21
343.0069044483334
 72
     1
 10
87.53024618686601
 20
343.0069044483334
 11
88.57990376477349
 21
343.0069044483334
 72
     1
 10
88.57990376477349
 20
343.0069044483334
 11
88.57990376477349
 21
344.0757377816681
 72
     1
 10
88.57990376477349
 20
344.0757377816681
 11
89.77269646693989
 21
344.0757377816681
 72
     1
 10
89.77269646693989
 20
344.0757377816681
 11
89.77269646693989
 21
341.0219282578569
 97
       12
330
111
330
112
330
FC
330
FB
330
FA
330
10E
330
F9
330
10F
330
110
330
F8
330
F7
330
F6
 75
     1
 76
     0
 52
45.0
 41
0.1
 77
     0
 78
     1
 53
45.0
 43
0.0
 44
0.0
 45
-0.0707106781186548
 46
0.0707106781186548
 79
     0
 98
        1
 10
0.0
 20
0.0
  0
HATCH
  5
1A7
330
47
100
AcDbEntity
  8
1
  6
Continuous
 62
     2
100
AcDbHatch
 10
0.0
 20
0.0
 30
0.0
210
0.0
220
0.0
230
1.0
  2
_USER
 70
     0
 71
     1
 91
        1
 92
        1
 93
       10
 72
     1
 10
92.01499581612819
 20
339.4077717952886
 11
90.7744914058753
 21
340.7165473054936
 72
     1
 10
90.7744914058753
 20
340.7165473054936
 11
89.5816987037077
 21
340.7165473054936
 72
     1
 10
89.5816987037077
 20
340.7165473054936
 11
89.5816987037077
 21
337.6627377816826
 72
     1
 10
89.5816987037077
 20
337.6627377816826
 11
90.7744914058753
 21
337.6627377816826
 72
     1
 10
90.7744914058753
 20
337.6627377816826
 11
90.7744914058753
 21
338.9715132918872
 72
     1
 10
90.7744914058753
 20
338.9715132918872
 11
92.01499581612819
 21
337.6627377816826
 72
     1
 10
92.01499581612819
 20
337.6627377816826
 11
93.20778851829459
 21
337.6627377816826
 72
     1
 10
93.20778851829459
 20
337.6627377816826
 11
93.20778851829459
 21
340.7165473054936
 72
     1
 10
93.20778851829459
 20
340.7165473054936
 11
92.01499581612819
 21
340.7165473054936
 72
     1
 10
92.01499581612819
 20
340.7165473054936
 11
92.01499581612819
 21
339.4077717952886
 97
       10
330
11F
330
EF
330
EE
330
F1
330
11A
330
11B
330
F0
330
11C
330
11D
330
11E
 75
     1
 76
     0
 52
45.0
 41
0.1
 77
     0
 78
     1
 53
45.0
 43
0.0
 44
0.0
 45
-0.0707106781186548
 46
0.0707106781186548
 79
     0
 98
        1
 10
0.0
 20
0.0
  0
HATCH
  5
1A8
330
47
100
AcDbEntity
  8
1
  6
Continuous
 62
     2
100
AcDbHatch
 10
0.0
 20
0.0
 30
0.0
210
0.0
220
0.0
230
1.0
  2
_USER
 70
     0
 71
     1
 91
        1
 92
        1
 93
       10
 72
     1
 10
92.01499581612819
 20
339.4077717952886
 11
90.7744914058753
 21
340.7165473054936
 72
     1
 10
90.7744914058753
 20
340.7165473054936
 11
89.5816987037077
 21
340.7165473054936
 72
     1
 10
89.5816987037077
 20
340.7165473054936
 11
89.5816987037077
 21
337.6627377816826
 72
     1
 10
89.5816987037077
 20
337.6627377816826
 11
90.7744914058753
 21
337.6627377816826
 72
     1
 10
90.7744914058753
 20
337.6627377816826
 11
90.7744914058753
 21
338.9715132918872
 72
     1
 10
90.7744914058753
 20
338.9715132918872
 11
92.01499581612819
 21
337.6627377816826
 72
     1
 10
92.01499581612819
 20
337.6627377816826
 11
93.20778851829459
 21
337.6627377816826
 72
     1
 10
93.20778851829459
 20
337.6627377816826
 11
93.20778851829459
 21
340.7165473054936
 72
     1
 10
93.20778851829459
 20
340.7165473054936
 11
92.01499581612819
 21
340.7165473054936
 72
     1
 10
92.01499581612819
 20
340.7165473054936
 11
92.01499581612819
 21
339.4077717952886
 97
       10
330
11F
330
EF
330
EE
330
F1
330
11A
330
11B
330
F0
330
11C
330
11D
330
11E
 75
     1
 76
     0
 52
45.0
 41
0.1
 77
     0
 78
     1
 53
45.0
 43
0.0
 44
0.0
 45
-0.0707106781186548
 46
0.0707106781186548
 79
     0
 98
        1
 10
0.0
 20
0.0
  0
HATCH
  5
1A9
330
47
100
AcDbEntity
  8
1
  6
Continuous
 62
     2
100
AcDbHatch
 10
0.0
 20
0.0
 30
0.0
210
0.0
220
0.0
230
1.0
  2
_USER
 70
     0
 71
     1
 91
        1
 92
        1
 93
       10
 72
     1
 10
97.26343463654791
 20
342.7669622714628
 11
96.02293022629391
 21
344.0757377816681
 72
     1
 10
96.02293022629391
 20
344.0757377816681
 11
94.8301375241274
 21
344.0757377816681
 72
     1
 10
94.8301375241274
 20
344.0757377816681
 11
94.8301375241274
 21
341.0219282578569
 72
     1
 10
94.8301375241274
 20
341.0219282578569
 11
96.02293022629391
 21
341.0219282578569
 72
     1
 10
96.02293022629391
 20
341.0219282578569
 11
96.02293022629391
 21
342.3307037680615
 72
     1
 10
96.02293022629391
 20
342.3307037680615
 11
97.26343463654791
 21
341.0219282578569
 72
     1
 10
97.26343463654791
 20
341.0219282578569
 11
98.45622733871451
 21
341.0219282578569
 72
     1
 10
98.45622733871451
 20
341.0219282578569
 11
98.45622733871451
 21
344.0757377816681
 72
     1
 10
98.45622733871451
 20
344.0757377816681
 11
97.26343463654791
 21
344.0757377816681
 72
     1
 10
97.26343463654791
 20
344.0757377816681
 11
97.26343463654791
 21
342.7669622714628
 97
       10
330
124
330
EC
330
EB
330
125
330
EA
330
120
330
121
330
122
330
123
330
ED
 75
     1
 76
     0
 52
45.0
 41
0.1
 77
     0
 78
     1
 53
45.0
 43
0.0
 44
0.0
 45
-0.0707106781186548
 46
0.0707106781186548
 79
     0
 98
        1
 10
0.0
 20
0.0
  0
HATCH
  5
1AA
330
47
100
AcDbEntity
  8
1
  6
Continuous
 62
     2
100
AcDbHatch
 10
0.0
 20
0.0
 30
0.0
210
0.0
220
0.0
230
1.0
  2
_USER
 70
     0
 71
     1
 91
        1
 92
        1
 93
       10
 72
     1
 10
97.26343463654791
 20
342.7669622714628
 11
96.02293022629391
 21
344.0757377816681
 72
     1
 10
96.02293022629391
 20
344.0757377816681
 11
94.8301375241274
 21
344.0757377816681
 72
     1
 10
94.8301375241274
 20
344.0757377816681
 11
94.8301375241274
 21
341.0219282578569
 72
     1
 10
94.8301375241274
 20
341.0219282578569
 11
96.02293022629391
 21
341.0219282578569
 72
     1
 10
96.02293022629391
 20
341.0219282578569
 11
96.02293022629391
 21
342.3307037680615
 72
     1
 10
96.02293022629391
 20
342.3307037680615
 11
97.26343463654791
 21
341.0219282578569
 72
     1
 10
97.26343463654791
 20
341.0219282578569
 11
98.45622733871451
 21
341.0219282578569
 72
     1
 10
98.45622733871451
 20
341.0219282578569
 11
98.45622733871451
 21
344.0757377816681
 72
     1
 10
98.45622733871451
 20
344.0757377816681
 11
97.26343463654791
 21
344.0757377816681
 72
     1
 10
97.26343463654791
 20
344.0757377816681
 11
97.26343463654791
 21
342.7669622714628
 97
       10
330
124
330
EC
330
EB
330
125
330
EA
330
120
330
121
330
122
330
123
330
ED
 75
     1
 76
     0
 52
45.0
 41
0.1
 77
     0
 78
     1
 53
45.0
 43
0.0
 44
0.0
 45
-0.0707106781186548
 46
0.0707106781186548
 79
     0
 98
        1
 10
0.0
 20
0.0
  0
HATCH
  5
1AB
330
47
100
AcDbEntity
  8
1
  6
Continuous
 62
     2
100
AcDbHatch
 10
0.0
 20
0.0
 30
0.0
210
0.0
220
0.0
230
1.0
  2
_USER
 70
     0
 71
     1
 91
        1
 92
        1
 93
        8
 72
     1
 10
96.16591441966841
 20
340.7165473054936
 11
93.35092364255479
 21
340.7165473054936
 72
     1
 10
93.35092364255479
 20
340.7165473054936
 11
93.35092364255479
 21
339.9312819993701
 72
     1
 10
93.35092364255479
 20
339.9312819993701
 11
94.1620226800294
 21
339.9312819993701
 72
     1
 10
94.1620226800294
 20
339.9312819993701
 11
94.1620226800294
 21
337.6627377816826
 72
     1
 10
94.1620226800294
 20
337.6627377816826
 11
95.35481538219591
 21
337.6627377816826
 72
     1
 10
95.35481538219591
 20
337.6627377816826
 11
95.35481538219591
 21
339.9312819993701
 72
     1
 10
95.35481538219591
 20
339.9312819993701
 11
96.16591441966841
 21
339.9312819993701
 72
     1
 10
96.16591441966841
 20
339.9312819993701
 11
96.16591441966841
 21
340.7165473054936
 97
        8
330
E6
330
126
330
E5
330
127
330
128
330
E9
330
E8
330
E7
 75
     1
 76
     0
 52
45.0
 41
0.1
 77
     0
 78
     1
 53
45.0
 43
0.0
 44
0.0
 45
-0.0707106781186548
 46
0.0707106781186548
 79
     0
 98
        1
 10
0.0
 20
0.0
  0
HATCH
  5
1AC
330
47
100
AcDbEntity
  8
1
  6
Continuous
 62
     2
100
AcDbHatch
 10
0.0
 20
0.0
 30
0.0
210
0.0
220
0.0
230
1.0
  2
_USER
 70
     0
 71
     1
 91
        1
 92
        1
 93
        8
 72
     1
 10
96.16591441966841
 20
340.7165473054936
 11
93.35092364255479
 21
340.7165473054936
 72
     1
 10
93.35092364255479
 20
340.7165473054936
 11
93.35092364255479
 21
339.9312819993701
 72
     1
 10
93.35092364255479
 20
339.9312819993701
 11
94.1620226800294
 21
339.9312819993701
 72
     1
 10
94.1620226800294
 20
339.9312819993701
 11
94.1620226800294
 21
337.6627377816826
 72
     1
 10
94.1620226800294
 20
337.6627377816826
 11
95.35481538219591
 21
337.6627377816826
 72
     1
 10
95.35481538219591
 20
337.6627377816826
 11
95.35481538219591
 21
339.9312819993701
 72
     1
 10
95.35481538219591
 20
339.9312819993701
 11
96.16591441966841
 21
339.9312819993701
 72
     1
 10
96.16591441966841
 20
339.9312819993701
 11
96.16591441966841
 21
340.7165473054936
 97
        8
330
E6
330
126
330
E5
330
127
330
128
330
E9
330
E8
330
E7
 75
     1
 76
     0
 52
45.0
 41
0.1
 77
     0
 78
     1
 53
45.0
 43
0.0
 44
0.0
 45
-0.0707106781186548
 46
0.0707106781186548
 79
     0
 98
        1
 10
0.0
 20
0.0
  0
HATCH
  5
1AD
330
47
100
AcDbEntity
  8
1
  6
Continuous
 62
     2
100
AcDbHatch
 10
0.0
 20
0.0
 30
0.0
210
0.0
220
0.0
230
1.0
  2
_USER
 70
     0
 71
     1
 91
        2
 92
        1
 93
        8
 72
     1
 10
98.30434187561539
 20
337.6627377816826
 11
98.09286182213961
 21
338.2036983259004
 72
     1
 10
98.09286182213961
 20
338.2036983259004
 11
96.9604202454658
 21
338.2036983259004
 72
     1
 10
96.9604202454658
 20
338.2036983259004
 11
96.74894019198999
 21
337.6627377816826
 72
     1
 10
96.74894019198999
 20
337.6627377816826
 11
95.508435781737
 21
337.6627377816826
 72
     1
 10
95.508435781737
 20
337.6627377816826
 11
96.90638882867631
 21
340.7165473054936
 72
     1
 10
96.90638882867631
 20
340.7165473054936
 11
98.14689323892901
 21
340.7165473054936
 72
     1
 10
98.14689323892901
 20
340.7165473054936
 11
99.54484628586931
 21
337.6627377816826
 72
     1
 10
99.54484628586931
 20
337.6627377816826
 11
98.30434187561539
 21
337.6627377816826
 97
        8
330
12A
330
12B
330
E2
330
12C
330
E1
330
E4
330
129
330
E3
 92
       16
 93
        3
 72
     1
 10
97.2264757966108
 20
338.8842615912071
 11
97.5266410338032
 21
339.6520765571937
 72
     1
 10
97.5266410338032
 20
339.6520765571937
 11
97.8268062709933
 21
338.8842615912071
 72
     1
 10
97.8268062709933
 20
338.8842615912071
 11
97.2264757966108
 21
338.8842615912071
 97
        3
330
E0
330
12E
330
12D
 75
     1
 76
     0
 52
45.0
 41
0.1
 77
     0
 78
     1
 53
45.0
 43
0.0
 44
0.0
 45
-0.0707106781186548
 46
0.0707106781186548
 79
     0
 98
        1
 10
0.0
 20
0.0
  0
HATCH
  5
1AE
330
47
100
AcDbEntity
  8
1
  6
Continuous
 62
     2
100
AcDbHatch
 10
0.0
 20
0.0
 30
0.0
210
0.0
220
0.0
230
1.0
  2
_USER
 70
     0
 71
     1
 91
        2
 92
        1
 93
        8
 72
     1
 10
98.30434187561539
 20
337.6627377816826
 11
98.09286182213961
 21
338.2036983259004
 72
     1
 10
98.09286182213961
 20
338.2036983259004
 11
96.9604202454658
 21
338.2036983259004
 72
     1
 10
96.9604202454658
 20
338.2036983259004
 11
96.74894019198999
 21
337.6627377816826
 72
     1
 10
96.74894019198999
 20
337.6627377816826
 11
95.508435781737
 21
337.6627377816826
 72
     1
 10
95.508435781737
 20
337.6627377816826
 11
96.90638882867631
 21
340.7165473054936
 72
     1
 10
96.90638882867631
 20
340.7165473054936
 11
98.14689323892901
 21
340.7165473054936
 72
     1
 10
98.14689323892901
 20
340.7165473054936
 11
99.54484628586931
 21
337.6627377816826
 72
     1
 10
99.54484628586931
 20
337.6627377816826
 11
98.30434187561539
 21
337.6627377816826
 97
        8
330
12A
330
12B
330
E2
330
12C
330
E1
330
E4
330
129
330
E3
 92
       16
 93
        3
 72
     1
 10
97.2264757966108
 20
338.8842615912071
 11
97.5266410338032
 21
339.6520765571937
 72
     1
 10
97.5266410338032
 20
339.6520765571937
 11
97.8268062709933
 21
338.8842615912071
 72
     1
 10
97.8268062709933
 20
338.8842615912071
 11
97.2264757966108
 21
338.8842615912071
 97
        3
330
E0
330
12E
330
12D
 75
     1
 76
     0
 52
45.0
 41
0.1
 77
     0
 78
     1
 53
45.0
 43
0.0
 44
0.0
 45
-0.0707106781186548
 46
0.0707106781186548
 79
     0
 98
        1
 10
0.0
 20
0.0
  0
HATCH
  5
1AF
330
47
100
AcDbEntity
  8
1
  6
Continuous
 62
     2
100
AcDbHatch
 10
0.0
 20
0.0
 30
0.0
210
0.0
220
0.0
230
1.0
  2
_USER
 70
     0
 71
     1
 91
        1
 92
        1
 93
        4
 72
     1
 10
99.93529028940131
 20
341.0219282578569
 11
98.69478587914841
 21
341.0219282578569
 72
     1
 10
98.69478587914841
 20
341.0219282578569
 11
98.69478587914841
 21
344.0757377816681
 72
     1
 10
98.69478587914841
 20
344.0757377816681
 11
99.93529028940131
 21
344.0757377816681
 72
     1
 10
99.93529028940131
 20
344.0757377816681
 11
99.93529028940131
 21
341.0219282578569
 97
        4
330
DD
330
DF
330
12F
330
DE
 75
     1
 76
     0
 52
45.0
 41
0.1
 77
     0
 78
     1
 53
45.0
 43
0.0
 44
0.0
 45
-0.0707106781186548
 46
0.0707106781186548
 79
     0
 98
        1
 10
0.0
 20
0.0
  0
HATCH
  5
1B0
330
47
100
AcDbEntity
  8
1
  6
Continuous
 62
     2
100
AcDbHatch
 10
0.0
 20
0.0
 30
0.0
210
0.0
220
0.0
230
1.0
  2
_USER
 70
     0
 71
     1
 91
        1
 92
        1
 93
        4
 72
     1
 10
99.93529028940131
 20
341.0219282578569
 11
98.69478587914841
 21
341.0219282578569
 72
     1
 10
98.69478587914841
 20
341.0219282578569
 11
98.69478587914841
 21
344.0757377816681
 72
     1
 10
98.69478587914841
 20
344.0757377816681
 11
99.93529028940131
 21
344.0757377816681
 72
     1
 10
99.93529028940131
 20
344.0757377816681
 11
99.93529028940131
 21
341.0219282578569
 97
        4
330
DD
330
DF
330
12F
330
DE
 75
     1
 76
     0
 52
45.0
 41
0.1
 77
     0
 78
     1
 53
45.0
 43
0.0
 44
0.0
 45
-0.0707106781186548
 46
0.0707106781186548
 79
     0
 98
        1
 10
0.0
 20
0.0
  0
HATCH
  5
1B1
330
47
100
AcDbEntity
  8
1
  6
Continuous
 62
     2
100
AcDbHatch
 10
0.0
 20
0.0
 30
0.0
210
0.0
220
0.0
230
1.0
  2
_USER
 70
     0
 71
     1
 91
        1
 92
        1
 93
       12
 72
     1
 10
104.1577764550721
 20
344.0757377816681
 11
102.8552468243056
 21
342.6027872516319
 72
     1
 10
102.8552468243056
 20
342.6027872516319
 11
104.2531998712459
 21
341.0219282578569
 72
     1
 10
104.2531998712459
 20
341.0219282578569
 11
102.8504756534976
 21
341.0219282578569
 72
     1
 10
102.8504756534976
 20
341.0219282578569
 11
102.1538847154321
 21
341.8096600431505
 72
     1
 10
102.1538847154321
 20
341.8096600431505
 11
101.4572937773664
 21
341.0219282578569
 72
     1
 10
101.4572937773664
 20
341.0219282578569
 11
100.0545695596182
 21
341.0219282578569
 72
     1
 10
100.0545695596182
 20
341.0219282578569
 11
101.4525226065585
 21
342.6027872516319
 72
     1
 10
101.4525226065585
 20
342.6027872516319
 11
100.149992975791
 21
344.0757377816681
 72
     1
 10
100.149992975791
 20
344.0757377816681
 11
101.5527171935403
 21
344.0757377816681
 72
     1
 10
101.5527171935403
 20
344.0757377816681
 11
102.1538847154321
 21
343.3959144601125
 72
     1
 10
102.1538847154321
 20
343.3959144601125
 11
102.7550522373249
 21
344.0757377816681
 72
     1
 10
102.7550522373249
 20
344.0757377816681
 11
104.1577764550721
 21
344.0757377816681
 97
       12
330
D8
330
D7
330
D6
330
133
330
134
330
130
330
131
330
DC
330
DB
330
DA
330
D9
330
132
 75
     1
 76
     0
 52
45.0
 41
0.1
 77
     0
 78
     1
 53
45.0
 43
0.0
 44
0.0
 45
-0.0707106781186548
 46
0.0707106781186548
 79
     0
 98
        1
 10
0.0
 20
0.0
  0
HATCH
  5
1B2
330
47
100
AcDbEntity
  8
1
  6
Continuous
 62
     2
100
AcDbHatch
 10
0.0
 20
0.0
 30
0.0
210
0.0
220
0.0
230
1.0
  2
_USER
 70
     0
 71
     1
 91
        1
 92
        1
 93
       12
 72
     1
 10
104.1577764550721
 20
344.0757377816681
 11
102.8552468243056
 21
342.6027872516319
 72
     1
 10
102.8552468243056
 20
342.6027872516319
 11
104.2531998712459
 21
341.0219282578569
 72
     1
 10
104.2531998712459
 20
341.0219282578569
 11
102.8504756534976
 21
341.0219282578569
 72
     1
 10
102.8504756534976
 20
341.0219282578569
 11
102.1538847154321
 21
341.8096600431505
 72
     1
 10
102.1538847154321
 20
341.8096600431505
 11
101.4572937773664
 21
341.0219282578569
 72
     1
 10
101.4572937773664
 20
341.0219282578569
 11
100.0545695596182
 21
341.0219282578569
 72
     1
 10
100.0545695596182
 20
341.0219282578569
 11
101.4525226065585
 21
342.6027872516319
 72
     1
 10
101.4525226065585
 20
342.6027872516319
 11
100.149992975791
 21
344.0757377816681
 72
     1
 10
100.149992975791
 20
344.0757377816681
 11
101.5527171935403
 21
344.0757377816681
 72
     1
 10
101.5527171935403
 20
344.0757377816681
 11
102.1538847154321
 21
343.3959144601125
 72
     1
 10
102.1538847154321
 20
343.3959144601125
 11
102.7550522373249
 21
344.0757377816681
 72
     1
 10
102.7550522373249
 20
344.0757377816681
 11
104.1577764550721
 21
344.0757377816681
 97
       12
330
D8
330
D7
330
D6
330
133
330
134
330
130
330
131
330
DC
330
DB
330
DA
330
D9
330
132
 75
     1
 76
     0
 52
45.0
 41
0.1
 77
     0
 78
     1
 53
45.0
 43
0.0
 44
0.0
 45
-0.0707106781186548
 46
0.0707106781186548
 79
     0
 98
        1
 10
0.0
 20
0.0
  0
HATCH
  5
1B3
330
47
100
AcDbEntity
  8
1
  6
Continuous
 62
     2
100
AcDbHatch
 10
0.0
 20
0.0
 30
0.0
210
0.0
220
0.0
230
1.0
  2
_USER
 70
     0
 71
     1
 91
        2
 92
        1
 93
        6
 72
     1
 10
85.14004104092609
 20
341.9650064990007
 11
84.38127345314581
 21
341.9650064990007
 72
     1
 10
84.38127345314581
 20
341.9650064990007
 11
84.38127345314581
 21
341.0219282578569
 72
     1
 10
84.38127345314581
 20
341.0219282578569
 11
83.14076904289169
 21
341.0219282578569
 72
     1
 10
83.14076904289169
 20
341.0219282578569
 11
83.14076904289169
 21
344.0757377816681
 72
     1
 10
83.14076904289169
 20
344.0757377816681
 11
85.14004104092609
 21
344.0757377816681
 72
     2
 10
85.14004104092609
 20
343.0203721403344
 40
1.055365641333708
 50
270.0
 51
450.0
 73
     0
 97
        6
330
100
330
FF
330
10C
330
10B
330
101
330
151
 92
       16
 93
        4
 72
     2
 10
84.69856851468771
 20
343.0597681115569
 40
0.3528638246712035
 50
270.0
 51
450.0
 73
     1
 72
     1
 10
84.69856851468771
 20
343.412631936228
 11
84.38127345314581
 21
343.412631936228
 72
     1
 10
84.38127345314581
 20
343.412631936228
 11
84.38127345314581
 21
342.7069042868857
 72
     1
 10
84.38127345314581
 20
342.7069042868857
 11
84.69856851468771
 21
342.7069042868857
 97
        4
330
165
330
FD
330
10D
330
FE
 75
     1
 76
     0
 52
45.0
 41
0.1
 77
     0
 78
     1
 53
45.0
 43
0.0
 44
0.0
 45
-0.0707106781186548
 46
0.0707106781186548
 79
     0
 98
        1
 10
0.0
 20
0.0
  0
HATCH
  5
1B4
330
47
100
AcDbEntity
  8
1
  6
Continuous
 62
     2
100
AcDbHatch
 10
0.0
 20
0.0
 30
0.0
210
0.0
220
0.0
230
1.0
  2
_USER
 70
     0
 71
     1
 91
        2
 92
        1
 93
        6
 72
     1
 10
85.14004104092609
 20
341.9650064990007
 11
84.38127345314581
 21
341.9650064990007
 72
     1
 10
84.38127345314581
 20
341.9650064990007
 11
84.38127345314581
 21
341.0219282578569
 72
     1
 10
84.38127345314581
 20
341.0219282578569
 11
83.14076904289169
 21
341.0219282578569
 72
     1
 10
83.14076904289169
 20
341.0219282578569
 11
83.14076904289169
 21
344.0757377816681
 72
     1
 10
83.14076904289169
 20
344.0757377816681
 11
85.14004104092609
 21
344.0757377816681
 72
     2
 10
85.14004104092609
 20
343.0203721403344
 40
1.055365641333708
 50
270.0
 51
450.0
 73
     0
 97
        6
330
100
330
FF
330
10C
330
10B
330
101
330
151
 92
       16
 93
        4
 72
     2
 10
84.69856851468771
 20
343.0597681115569
 40
0.3528638246712035
 50
270.0
 51
450.0
 73
     1
 72
     1
 10
84.69856851468771
 20
343.412631936228
 11
84.38127345314581
 21
343.412631936228
 72
     1
 10
84.38127345314581
 20
343.412631936228
 11
84.38127345314581
 21
342.7069042868857
 72
     1
 10
84.38127345314581
 20
342.7069042868857
 11
84.69856851468771
 21
342.7069042868857
 97
        4
330
165
330
FD
330
10D
330
FE
 75
     1
 76
     0
 52
45.0
 41
0.1
 77
     0
 78
     1
 53
45.0
 43
0.0
 44
0.0
 45
-0.0707106781186548
 46
0.0707106781186548
 79
     0
 98
        1
 10
0.0
 20
0.0
  0
HATCH
  5
1B5
330
47
100
AcDbEntity
  8
1
  6
Continuous
 62
     2
100
AcDbHatch
 10
0.0
 20
0.0
 30
0.0
210
0.0
220
0.0
230
1.0
  2
_USER
 70
     0
 71
     1
 91
        2
 92
        1
 93
        4
 72
     2
 10
87.6965837892852
 20
338.6510675332851
 40
2.065479772208492
 50
62.45185182430527
 51
117.5481481756675
 73
     1
 72
     2
 10
87.4156438974519
 20
339.1896425435879
 40
1.458034083651364
 50
117.548148175665
 51
242.4518518243402
 73
     1
 72
     2
 10
87.6965837892852
 20
339.7282175538911
 40
2.065479772208534
 50
242.4518518243405
 51
297.5481481756867
 73
     1
 72
     2
 10
87.9775236811185
 20
339.1896425435879
 40
1.458034083652129
 50
297.5481481756985
 51
422.4518518242964
 73
     1
 97
        4
330
15D
330
15C
330
15E
330
15B
 92
       16
 93
        4
 72
     2
 10
87.49684375293879
 20
339.1896425435879
 40
0.7717997786798
 50
321.8795802028318
 51
398.120419797145
 73
     1
 72
     2
 10
87.6965837892852
 20
339.3463737217084
 40
0.5179085730132297
 50
38.12041979713714
 51
141.8795802028687
 73
     1
 72
     2
 10
87.8963238256313
 20
339.1896425435879
 40
0.7717997786793755
 50
141.8795802028446
 51
218.1204197971787
 73
     1
 72
     2
 10
87.6965837892852
 20
339.0329113654678
 40
0.5179085730137529
 50
218.1204197971956
 51
321.8795802027985
 73
     1
 97
        4
330
179
330
176
330
177
330
178
 75
     1
 76
     0
 52
45.0
 41
0.1
 77
     0
 78
     1
 53
45.0
 43
0.0
 44
0.0
 45
-0.0707106781186548
 46
0.0707106781186548
 79
     0
 98
        1
 10
0.0
 20
0.0
  0
HATCH
  5
1B6
330
47
100
AcDbEntity
  8
1
  6
Continuous
 62
     2
100
AcDbHatch
 10
0.0
 20
0.0
 30
0.0
210
0.0
220
0.0
230
1.0
  2
_USER
 70
     0
 71
     1
 91
        2
 92
        1
 93
        4
 72
     2
 10
87.6965837892852
 20
338.6510675332851
 40
2.065479772208492
 50
62.45185182430527
 51
117.5481481756675
 73
     1
 72
     2
 10
87.4156438974519
 20
339.1896425435879
 40
1.458034083651364
 50
117.548148175665
 51
242.4518518243402
 73
     1
 72
     2
 10
87.6965837892852
 20
339.7282175538911
 40
2.065479772208534
 50
242.4518518243405
 51
297.5481481756867
 73
     1
 72
     2
 10
87.9775236811185
 20
339.1896425435879
 40
1.458034083652129
 50
297.5481481756985
 51
422.4518518242964
 73
     1
 97
        4
330
15D
330
15C
330
15E
330
15B
 92
       16
 93
        4
 72
     2
 10
87.49684375293879
 20
339.1896425435879
 40
0.7717997786798
 50
321.8795802028318
 51
398.120419797145
 73
     1
 72
     2
 10
87.6965837892852
 20
339.3463737217084
 40
0.5179085730132297
 50
38.12041979713714
 51
141.8795802028687
 73
     1
 72
     2
 10
87.8963238256313
 20
339.1896425435879
 40
0.7717997786793755
 50
141.8795802028446
 51
218.1204197971787
 73
     1
 72
     2
 10
87.6965837892852
 20
339.0329113654678
 40
0.5179085730137529
 50
218.1204197971956
 51
321.8795802027985
 73
     1
 97
        4
330
179
330
176
330
177
330
178
 75
     1
 76
     0
 52
45.0
 41
0.1
 77
     0
 78
     1
 53
45.0
 43
0.0
 44
0.0
 45
-0.0707106781186548
 46
0.0707106781186548
 79
     0
 98
        1
 10
0.0
 20
0.0
  0
HATCH
  5
1B7
330
47
100
AcDbEntity
  8
1
  6
Continuous
 62
     2
100
AcDbHatch
 10
0.0
 20
0.0
 30
0.0
210
0.0
220
0.0
230
1.0
  2
_USER
 70
     0
 71
     1
 91
        2
 92
        1
 93
       12
 72
     1
 10
94.59157898369449
 20
343.3777241762251
 11
93.25565115726681
 21
343.3777241762251
 72
     1
 10
93.25565115726681
 20
343.3777241762251
 11
93.25565115726681
 21
342.8978398224833
 72
     1
 10
93.25565115726681
 20
342.8978398224833
 11
94.59157898369449
 21
342.8978398224833
 72
     1
 10
94.59157898369449
 20
342.8978398224833
 11
94.59157898369449
 21
342.1998262170411
 72
     1
 10
94.59157898369449
 20
342.1998262170411
 11
93.25565115726681
 21
342.1998262170411
 72
     1
 10
93.25565115726681
 20
342.1998262170411
 11
93.25565115726681
 21
341.7199418632994
 72
     1
 10
93.25565115726681
 20
341.7199418632994
 11
94.59157898369449
 21
341.7199418632994
 72
     1
 10
94.59157898369449
 20
341.7199418632994
 11
94.59157898369449
 21
341.0219282578569
 72
     1
 10
94.59157898369449
 20
341.0219282578569
 11
91.4412592599135
 21
341.0219282578569
 72
     2
 10
91.4412592599135
 20
342.5488330197621
 40
1.526904761905996
 50
90.0
 51
270.0
 73
     0
 72
     1
 10
91.4412592599135
 20
344.0757377816681
 11
94.59157898369449
 21
344.0757377816681
 72
     1
 10
94.59157898369449
 20
344.0757377816681
 11
94.59157898369449
 21
343.3777241762251
 97
       12
330
114
330
166
330
115
330
116
330
117
330
118
330
F5
330
F4
330
F3
330
F2
330
119
330
113
 92
       16
 93
        4
 72
     2
 10
91.65753127007869
 20
342.7055641978826
 40
0.5179085730135967
 50
38.12041979715324
 51
141.879580202839
 73
     1
 72
     2
 10
91.85727130642499
 20
342.5488330197621
 40
0.7717997786797426
 50
141.8795802028338
 51
218.1204197971562
 73
     1
 72
     2
 10
91.65753127007869
 20
342.3921018416418
 40
0.5179085730135072
 50
218.120419797161
 51
321.8795802028467
 73
     1
 72
     2
 10
91.45779123373251
 20
342.5488330197621
 40
0.7717997786796373
 50
321.8795802028437
 51
398.1204197971662
 73
     1
 97
        4
330
160
330
15F
330
15A
330
159
 75
     1
 76
     0
 52
45.0
 41
0.1
 77
     0
 78
     1
 53
45.0
 43
0.0
 44
0.0
 45
-0.0707106781186548
 46
0.0707106781186548
 79
     0
 98
        1
 10
0.0
 20
0.0
  0
HATCH
  5
1B8
330
47
100
AcDbEntity
  8
1
  6
Continuous
 62
     2
100
AcDbHatch
 10
0.0
 20
0.0
 30
0.0
210
0.0
220
0.0
230
1.0
  2
_USER
 70
     0
 71
     1
 91
        2
 92
        1
 93
       12
 72
     1
 10
94.59157898369449
 20
343.3777241762251
 11
93.25565115726681
 21
343.3777241762251
 72
     1
 10
93.25565115726681
 20
343.3777241762251
 11
93.25565115726681
 21
342.8978398224833
 72
     1
 10
93.25565115726681
 20
342.8978398224833
 11
94.59157898369449
 21
342.8978398224833
 72
     1
 10
94.59157898369449
 20
342.8978398224833
 11
94.59157898369449
 21
342.1998262170411
 72
     1
 10
94.59157898369449
 20
342.1998262170411
 11
93.25565115726681
 21
342.1998262170411
 72
     1
 10
93.25565115726681
 20
342.1998262170411
 11
93.25565115726681
 21
341.7199418632994
 72
     1
 10
93.25565115726681
 20
341.7199418632994
 11
94.59157898369449
 21
341.7199418632994
 72
     1
 10
94.59157898369449
 20
341.7199418632994
 11
94.59157898369449
 21
341.0219282578569
 72
     1
 10
94.59157898369449
 20
341.0219282578569
 11
91.4412592599135
 21
341.0219282578569
 72
     2
 10
91.4412592599135
 20
342.5488330197621
 40
1.526904761905996
 50
90.0
 51
270.0
 73
     0
 72
     1
 10
91.4412592599135
 20
344.0757377816681
 11
94.59157898369449
 21
344.0757377816681
 72
     1
 10
94.59157898369449
 20
344.0757377816681
 11
94.59157898369449
 21
343.3777241762251
 97
       12
330
114
330
166
330
115
330
116
330
117
330
118
330
F5
330
F4
330
F3
330
F2
330
119
330
113
 92
       16
 93
        4
 72
     2
 10
91.65753127007869
 20
342.7055641978826
 40
0.5179085730135967
 50
38.12041979715324
 51
141.879580202839
 73
     1
 72
     2
 10
91.85727130642499
 20
342.5488330197621
 40
0.7717997786797426
 50
141.8795802028338
 51
218.1204197971562
 73
     1
 72
     2
 10
91.65753127007869
 20
342.3921018416418
 40
0.5179085730135072
 50
218.120419797161
 51
321.8795802028467
 73
     1
 72
     2
 10
91.45779123373251
 20
342.5488330197621
 40
0.7717997786796373
 50
321.8795802028437
 51
398.1204197971662
 73
     1
 97
        4
330
160
330
15F
330
15A
330
159
 75
     1
 76
     0
 52
45.0
 41
0.1
 77
     0
 78
     1
 53
45.0
 43
0.0
 44
0.0
 45
-0.0707106781186548
 46
0.0707106781186548
 79
     0
 98
        1
 10
0.0
 20
0.0
  0
HATCH
  5
1B9
330
47
100
AcDbEntity
  8
1
  6
Continuous
 62
     2
100
AcDbHatch
 10
0.0
 20
0.0
 30
0.0
210
0.0
220
0.0
230
1.0
  2
_USER
 70
     0
 71
     1
 91
        4
 92
        1
 93
        8
 72
     1
 10
82.66365196202489
 20
343.6514931662661
 11
82.66365196202489
 21
338.0869823970659
 72
     2
 10
82.239407346641
 20
338.0869823970659
 40
0.4242446153833157
 50
0.0
 51
90.0
 73
     0
 72
     1
 10
82.239407346641
 20
337.6627377816826
 11
76.7660952559242
 21
337.6627377816826
 72
     2
 10
76.7660952559242
 20
338.0869823970659
 40
0.4242446153828041
 50
90.0
 51
180.0
 73
     0
 72
     1
 10
76.3418506405414
 20
338.0869823970659
 11
76.3418506405414
 21
343.6514931662661
 72
     2
 10
76.7660952559242
 20
343.6514931662661
 40
0.4242446153837705
 50
180.0
 51
270.0
 73
     0
 72
     1
 10
76.7660952559242
 20
344.0757377816499
 11
82.239407346641
 21
344.0757377816499
 72
     2
 10
82.239407346641
 20
343.6514931662661
 40
0.4242446153838841
 50
270.0
 51
360.0
 73
     0
 97
        8
330
108
330
156
330
109
330
161
330
106
330
158
330
107
330
157
 92
       16
 93
        1
 72
     2
 10
79.3856809064417
 20
341.3326109379105
 40
0.4709789327785074
 50
0.0
 51
360.0
 73
     1
 97
        1
330
17C
 92
       16
 93
        8
 72
     2
 10
79.93553861920239
 20
340.2234693379421
 40
0.3157169230765842
 50
115.3740086783474
 51
180.0
 73
     1
 72
     1
 10
79.6198216961256
 20
340.2234693379421
 11
79.6198216961256
 21
339.6416179312471
 72
     2
 10
79.93553861920239
 20
339.6416179312471
 40
0.315716923076792
 50
180.0
 51
269.8110329574542
 73
     1
 72
     2
 10
79.94115475451241
 20
341.344452878816
 40
2.018561131933266
 50
269.8110329575858
 51
450.1889670424142
 73
     1
 72
     2
 10
79.93553861920239
 20
343.0472878263852
 40
0.3157169230760142
 50
90.18896704254595
 51
180.0
 73
     1
 72
     1
 10
79.6198216961256
 20
343.0472878263852
 11
79.6198216961256
 21
342.4417525378784
 72
     2
 10
79.93553861920239
 20
342.4417525378784
 40
0.315716923076792
 50
180.0
 51
244.625991321657
 73
     1
 72
     2
 10
79.40949592111451
 20
341.3326109379105
 40
0.9118481501443819
 50
295.3740086781925
 51
424.6259913218212
 73
     0
 97
        8
330
16E
330
CF
330
16B
330
16C
330
14A
330
CE
330
16D
330
149
 92
       16
 93
       12
 72
     2
 10
77.35998993267069
 20
338.6910102603162
 40
0.3157169230756836
 50
180.0
 51
270.0
 73
     1
 72
     1
 10
77.35998993267069
 20
338.3752933372394
 11
78.83582319368031
 21
338.3752933372394
 72
     2
 10
78.83582319368031
 20
338.6910102603162
 40
0.3157169230768204
 50
270.0
 51
360.0
 73
     1
 72
     1
 10
79.1515401167569
 20
338.6910102603162
 11
79.1515401167569
 21
340.2217811918478
 72
     2
 10
78.83582319368031
 20
340.2217811918478
 40
0.315716923076593
 50
0.0
 51
64.8055893514515
 73
     1
 72
     2
 10
79.3584076412553
 20
341.3326109379105
 40
0.9118975235575889
 50
115.1944106485122
 51
244.805589351471
 73
     0
 72
     2
 10
78.83582319368031
 20
342.4434406839728
 40
0.3157169230762746
 50
295.1944106485265
 51
360.0
 73
     1
 72
     1
 10
79.1515401167569
 20
342.4434406839728
 11
79.1515401167569
 21
343.0474653030333
 72
     2
 10
78.83582319368031
 20
343.0474653030333
 40
0.315716923076593
 50
0.0
 51
90.0
 73
     1
 72
     1
 10
78.83582319368031
 20
343.3631822261094
 11
77.35998993267069
 21
343.3631822261094
 72
     2
 10
77.35998993267069
 20
343.0474653030333
 40
0.3157169230761383
 50
90.0
 51
180.0
 73
     1
 72
     1
 10
77.044273009595
 20
343.0474653030333
 11
77.044273009595
 21
338.6910102603162
 97
       12
330
152
330
10A
330
155
330
105
330
162
330
163
330
154
330
104
330
153
330
103
330
164
330
102
 75
     1
 76
     0
 52
45.0
 41
0.1
 77
     0
 78
     1
 53
45.0
 43
0.0
 44
0.0
 45
-0.0707106781186548
 46
0.0707106781186548
 79
     0
 98
        1
 10
0.0
 20
0.0
  0
HATCH
  5
1BA
330
47
100
AcDbEntity
  8
1
  6
Continuous
 62
     2
100
AcDbHatch
 10
0.0
 20
0.0
 30
0.0
210
0.0
220
0.0
230
1.0
  2
_USER
 70
     0
 71
     1
 91
        4
 92
        1
 93
        8
 72
     1
 10
82.66365196202489
 20
343.6514931662661
 11
82.66365196202489
 21
338.0869823970659
 72
     2
 10
82.239407346641
 20
338.0869823970659
 40
0.4242446153833157
 50
0.0
 51
90.0
 73
     0
 72
     1
 10
82.239407346641
 20
337.6627377816826
 11
76.7660952559242
 21
337.6627377816826
 72
     2
 10
76.7660952559242
 20
338.0869823970659
 40
0.4242446153828041
 50
90.0
 51
180.0
 73
     0
 72
     1
 10
76.3418506405414
 20
338.0869823970659
 11
76.3418506405414
 21
343.6514931662661
 72
     2
 10
76.7660952559242
 20
343.6514931662661
 40
0.4242446153837705
 50
180.0
 51
270.0
 73
     0
 72
     1
 10
76.7660952559242
 20
344.0757377816499
 11
82.239407346641
 21
344.0757377816499
 72
     2
 10
82.239407346641
 20
343.6514931662661
 40
0.4242446153838841
 50
270.0
 51
360.0
 73
     0
 97
        8
330
108
330
156
330
109
330
161
330
106
330
158
330
107
330
157
 92
       16
 93
        1
 72
     2
 10
79.3856809064417
 20
341.3326109379105
 40
0.4709789327785074
 50
0.0
 51
360.0
 73
     1
 97
        1
330
17C
 92
       16
 93
        8
 72
     2
 10
79.93553861920239
 20
340.2234693379421
 40
0.3157169230765842
 50
115.3740086783474
 51
180.0
 73
     1
 72
     1
 10
79.6198216961256
 20
340.2234693379421
 11
79.6198216961256
 21
339.6416179312471
 72
     2
 10
79.93553861920239
 20
339.6416179312471
 40
0.315716923076792
 50
180.0
 51
269.8110329574542
 73
     1
 72
     2
 10
79.94115475451241
 20
341.344452878816
 40
2.018561131933266
 50
269.8110329575858
 51
450.1889670424142
 73
     1
 72
     2
 10
79.93553861920239
 20
343.0472878263852
 40
0.3157169230760142
 50
90.18896704254595
 51
180.0
 73
     1
 72
     1
 10
79.6198216961256
 20
343.0472878263852
 11
79.6198216961256
 21
342.4417525378784
 72
     2
 10
79.93553861920239
 20
342.4417525378784
 40
0.315716923076792
 50
180.0
 51
244.625991321657
 73
     1
 72
     2
 10
79.40949592111451
 20
341.3326109379105
 40
0.9118481501443819
 50
295.3740086781925
 51
424.6259913218212
 73
     0
 97
        8
330
16E
330
CF
330
16B
330
16C
330
14A
330
CE
330
16D
330
149
 92
       16
 93
       12
 72
     2
 10
77.35998993267069
 20
338.6910102603162
 40
0.3157169230756836
 50
180.0
 51
270.0
 73
     1
 72
     1
 10
77.35998993267069
 20
338.3752933372394
 11
78.83582319368031
 21
338.3752933372394
 72
     2
 10
78.83582319368031
 20
338.6910102603162
 40
0.3157169230768204
 50
270.0
 51
360.0
 73
     1
 72
     1
 10
79.1515401167569
 20
338.6910102603162
 11
79.1515401167569
 21
340.2217811918478
 72
     2
 10
78.83582319368031
 20
340.2217811918478
 40
0.315716923076593
 50
0.0
 51
64.8055893514515
 73
     1
 72
     2
 10
79.3584076412553
 20
341.3326109379105
 40
0.9118975235575889
 50
115.1944106485122
 51
244.805589351471
 73
     0
 72
     2
 10
78.83582319368031
 20
342.4434406839728
 40
0.3157169230762746
 50
295.1944106485265
 51
360.0
 73
     1
 72
     1
 10
79.1515401167569
 20
342.4434406839728
 11
79.1515401167569
 21
343.0474653030333
 72
     2
 10
78.83582319368031
 20
343.0474653030333
 40
0.315716923076593
 50
0.0
 51
90.0
 73
     1
 72
     1
 10
78.83582319368031
 20
343.3631822261094
 11
77.35998993267069
 21
343.3631822261094
 72
     2
 10
77.35998993267069
 20
343.0474653030333
 40
0.3157169230761383
 50
90.0
 51
180.0
 73
     1
 72
     1
 10
77.044273009595
 20
343.0474653030333
 11
77.044273009595
 21
338.6910102603162
 97
       12
330
152
330
10A
330
155
330
105
330
162
330
163
330
154
330
104
330
153
330
103
330
164
330
102
 75
     1
 76
     0
 52
45.0
 41
0.1
 77
     0
 78
     1
 53
45.0
 43
0.0
 44
0.0
 45
-0.0707106781186548
 46
0.0707106781186548
 79
     0
 98
        1
 10
0.0
 20
0.0
  0
HATCH
  5
1BB
330
47
100
AcDbEntity
  8
1
  6
Continuous
 62
     2
100
AcDbHatch
 10
0.0
 20
0.0
 30
0.0
210
0.0
220
0.0
230
1.0
  2
_USER
 70
     0
 71
     1
 91
        1
 92
        1
 93
       18
 72
     1
 10
104.2531998712459
 20
339.9312819993701
 11
103.4421008337725
 21
339.9312819993701
 72
     1
 10
103.4421008337725
 20
339.9312819993701
 11
103.4421008337725
 21
337.6627377816826
 72
     1
 10
103.4421008337725
 20
337.6627377816826
 11
102.2493081316048
 21
337.6627377816826
 72
     1
 10
102.2493081316048
 20
337.6627377816826
 11
102.2493081316048
 21
339.9312819993701
 72
     1
 10
102.2493081316048
 20
339.9312819993701
 11
101.1456688320367
 21
339.9312819993701
 72
     2
 10
101.1456688320367
 20
338.976758992544
 40
0.9545230068261503
 50
90.0
 51
109.3371432194309
 73
     1
 72
     2
 10
100.998998833933
 20
339.3947139729269
 40
0.5115800601944143
 50
109.3371432194853
 51
151.4785267424365
 73
     1
 72
     2
 10
101.3763560920144
 20
339.1896425435879
 40
0.941059735334837
 50
151.4785267423704
 51
208.5214732576691
 73
     1
 72
     2
 10
100.998998833933
 20
338.9845711142493
 40
0.5115800601959674
 50
208.5214732576754
 51
246.6277221118399
 73
     1
 72
     2
 10
101.1554388666361
 20
339.3465631329593
 40
0.9059297849851757
 50
246.6277221118154
 51
288.4480761180828
 73
     1
 72
     2
 10
100.7372711329742
 20
340.6001089089959
 40
2.227384008972665
 50
288.4480761181342
 51
301.9309089499406
 73
     1
 72
     1
 10
101.9153261749981
 20
338.7097581898462
 11
101.9153261749981
 21
337.8372411830428
 72
     2
 10
100.5793982578814
 20
342.5023234888442
 40
4.85259686349871
 50
74.0200087416614
 51
84.8418552303637
 73
     0
 72
     2
 10
100.8682543526172
 20
339.3024329056227
 40
1.639695123940464
 50
84.8418552303238
 51
164.9381082228948
 73
     0
 72
     2
 10
100.4491265091556
 20
339.1896425435879
 40
1.205656168392958
 50
164.9381082228976
 51
195.0618917770894
 73
     0
 72
     2
 10
100.8682543526172
 20
339.0768521815529
 40
1.639695123940214
 50
195.0618917771032
 51
270.0
 73
     0
 72
     1
 10
100.8682543526172
 20
340.7165473054931
 11
104.2531998712459
 21
340.7165473054936
 72
     1
 10
104.2531998712459
 20
340.7165473054936
 11
104.2531998712459
 21
339.9312819993701
 97
       18
330
D1
330
167
330
168
330
150
330
14F
330
135
330
14E
330
14D
330
169
330
14C
330
16A
330
14B
330
136
330
D0
330
D5
330
D4
330
D3
330
D2
 75
     1
 76
     0
 52
45.0
 41
0.1
 77
     0
 78
     1
 53
45.0
 43
0.0
 44
0.0
 45
-0.0707106781186548
 46
0.0707106781186548
 79
     0
 98
        1
 10
0.0
 20
0.0
  0
HATCH
  5
1BC
330
47
100
AcDbEntity
  8
1
  6
Continuous
 62
     2
100
AcDbHatch
 10
0.0
 20
0.0
 30
0.0
210
0.0
220
0.0
230
1.0
  2
_USER
 70
     0
 71
     1
 91
        1
 92
        1
 93
       18
 72
     1
 10
104.2531998712459
 20
339.9312819993701
 11
103.4421008337725
 21
339.9312819993701
 72
     1
 10
103.4421008337725
 20
339.9312819993701
 11
103.4421008337725
 21
337.6627377816826
 72
     1
 10
103.4421008337725
 20
337.6627377816826
 11
102.2493081316048
 21
337.6627377816826
 72
     1
 10
102.2493081316048
 20
337.6627377816826
 11
102.2493081316048
 21
339.9312819993701
 72
     1
 10
102.2493081316048
 20
339.9312819993701
 11
101.1456688320367
 21
339.9312819993701
 72
     2
 10
101.1456688320367
 20
338.976758992544
 40
0.9545230068261503
 50
90.0
 51
109.3371432194309
 73
     1
 72
     2
 10
100.998998833933
 20
339.3947139729269
 40
0.5115800601944143
 50
109.3371432194853
 51
151.4785267424365
 73
     1
 72
     2
 10
101.3763560920144
 20
339.1896425435879
 40
0.941059735334837
 50
151.4785267423704
 51
208.5214732576691
 73
     1
 72
     2
 10
100.998998833933
 20
338.9845711142493
 40
0.5115800601959674
 50
208.5214732576754
 51
246.6277221118399
 73
     1
 72
     2
 10
101.1554388666361
 20
339.3465631329593
 40
0.9059297849851757
 50
246.6277221118154
 51
288.4480761180828
 73
     1
 72
     2
 10
100.7372711329742
 20
340.6001089089959
 40
2.227384008972665
 50
288.4480761181342
 51
301.9309089499406
 73
     1
 72
     1
 10
101.9153261749981
 20
338.7097581898462
 11
101.9153261749981
 21
337.8372411830428
 72
     2
 10
100.5793982578814
 20
342.5023234888442
 40
4.85259686349871
 50
74.0200087416614
 51
84.8418552303637
 73
     0
 72
     2
 10
100.8682543526172
 20
339.3024329056227
 40
1.639695123940464
 50
84.8418552303238
 51
164.9381082228948
 73
     0
 72
     2
 10
100.4491265091556
 20
339.1896425435879
 40
1.205656168392958
 50
164.9381082228976
 51
195.0618917770894
 73
     0
 72
     2
 10
100.8682543526172
 20
339.0768521815529
 40
1.639695123940214
 50
195.0618917771032
 51
270.0
 73
     0
 72
     1
 10
100.8682543526172
 20
340.7165473054931
 11
104.2531998712459
 21
340.7165473054936
 72
     1
 10
104.2531998712459
 20
340.7165473054936
 11
104.2531998712459
 21
339.9312819993701
 97
       18
330
D1
330
167
330
168
330
150
330
14F
330
135
330
14E
330
14D
330
169
330
14C
330
16A
330
14B
330
136
330
D0
330
D5
330
D4
330
D3
330
D2
 75
     1
 76
     0
 52
45.0
 41
0.1
 77
     0
 78
     1
 53
45.0
 43
0.0
 44
0.0
 45
-0.0707106781186548
 46
0.0707106781186548
 79
     0
 98
        1
 10
0.0
 20
0.0
  0
HATCH
  5
1BD
330
47
100
AcDbEntity
  8
1
  6
Continuous
 62
     2
100
AcDbHatch
 10
0.0
 20
0.0
 30
0.0
210
0.0
220
0.0
230
1.0
  2
_USER
 70
     0
 71
     1
 91
        1
 92
        1
 93
       14
 72
     2
 10
84.7655528733643
 20
339.0768521815529
 40
1.63969512394062
 50
84.84185523036271
 51
164.9381082228884
 73
     1
 72
     2
 10
84.3464250299015
 20
339.1896425435879
 40
1.2056561683909
 50
164.9381082228843
 51
195.0618917770948
 73
     1
 72
     2
 10
84.7655528733643
 20
339.3024329056227
 40
1.63969512393938
 50
195.0618917770886
 51
275.1581447696393
 73
     1
 72
     2
 10
84.4766967786284
 20
342.5023234888442
 40
4.85259686349811
 50
275.158144769625
 51
285.9799912583529
 73
     1
 72
     1
 10
85.8126246957462
 20
337.8372411830434
 11
85.8126246957462
 21
338.7097581898466
 72
     2
 10
84.63456965372131
 20
340.6001089089965
 40
2.227384008972656
 50
58.06909105004111
 51
71.55192388186651
 73
     0
 72
     2
 10
85.05273738738211
 20
339.3465631329593
 40
0.9059297849848149
 50
71.55192388183985
 51
113.3722778881318
 73
     0
 72
     2
 10
84.89629735468009
 20
338.9845711142493
 40
0.5115800601948034
 50
113.3722778881777
 51
151.4785267423044
 73
     0
 72
     2
 10
85.2736546127604
 20
339.1896425435879
 40
0.9410597353332545
 50
151.4785267422882
 51
208.5214732577331
 73
     0
 72
     2
 10
84.89629735468009
 20
339.3947139729269
 40
0.5115800601948517
 50
208.5214732576956
 51
246.6277221117996
 73
     0
 72
     2
 10
85.05273738738211
 20
339.0327219542162
 40
0.9059297849853228
 50
246.6277221118739
 51
288.4480761181465
 73
     0
 72
     2
 10
84.63456965372131
 20
337.7791761781797
 40
2.227384008973501
 50
288.4480761181335
 51
301.9309089499589
 73
     0
 72
     1
 10
85.8126246957462
 20
339.6695268973296
 11
85.8126246957462
 21
340.5420439041328
 72
     2
 10
84.4766967786284
 20
335.876961598332
 40
4.852596863497986
 50
74.0200087416471
 51
84.84185523037509
 73
     1
 97
       14
330
16F
330
170
330
171
330
172
330
137
330
148
330
147
330
146
330
173
330
174
330
145
330
175
330
138
330
144
 75
     1
 76
     0
 52
45.0
 41
0.1
 77
     0
 78
     1
 53
45.0
 43
0.0
 44
0.0
 45
-0.0707106781186548
 46
0.0707106781186548
 79
     0
 98
        1
 10
0.0
 20
0.0
  0
HATCH
  5
1BE
330
47
100
AcDbEntity
  8
1
  6
Continuous
 62
     2
100
AcDbHatch
 10
0.0
 20
0.0
 30
0.0
210
0.0
220
0.0
230
1.0
  2
_USER
 70
     0
 71
     1
 91
        1
 92
        1
 93
       14
 72
     2
 10
84.7655528733643
 20
339.0768521815529
 40
1.63969512394062
 50
84.84185523036271
 51
164.9381082228884
 73
     1
 72
     2
 10
84.3464250299015
 20
339.1896425435879
 40
1.2056561683909
 50
164.9381082228843
 51
195.0618917770948
 73
     1
 72
     2
 10
84.7655528733643
 20
339.3024329056227
 40
1.63969512393938
 50
195.0618917770886
 51
275.1581447696393
 73
     1
 72
     2
 10
84.4766967786284
 20
342.5023234888442
 40
4.85259686349811
 50
275.158144769625
 51
285.9799912583529
 73
     1
 72
     1
 10
85.8126246957462
 20
337.8372411830434
 11
85.8126246957462
 21
338.7097581898466
 72
     2
 10
84.63456965372131
 20
340.6001089089965
 40
2.227384008972656
 50
58.06909105004111
 51
71.55192388186651
 73
     0
 72
     2
 10
85.05273738738211
 20
339.3465631329593
 40
0.9059297849848149
 50
71.55192388183985
 51
113.3722778881318
 73
     0
 72
     2
 10
84.89629735468009
 20
338.9845711142493
 40
0.5115800601948034
 50
113.3722778881777
 51
151.4785267423044
 73
     0
 72
     2
 10
85.2736546127604
 20
339.1896425435879
 40
0.9410597353332545
 50
151.4785267422882
 51
208.5214732577331
 73
     0
 72
     2
 10
84.89629735468009
 20
339.3947139729269
 40
0.5115800601948517
 50
208.5214732576956
 51
246.6277221117996
 73
     0
 72
     2
 10
85.05273738738211
 20
339.0327219542162
 40
0.9059297849853228
 50
246.6277221118739
 51
288.4480761181465
 73
     0
 72
     2
 10
84.63456965372131
 20
337.7791761781797
 40
2.227384008973501
 50
288.4480761181335
 51
301.9309089499589
 73
     0
 72
     1
 10
85.8126246957462
 20
339.6695268973296
 11
85.8126246957462
 21
340.5420439041328
 72
     2
 10
84.4766967786284
 20
335.876961598332
 40
4.852596863497986
 50
74.0200087416471
 51
84.84185523037509
 73
     1
 97
       14
330
16F
330
170
330
171
330
172
330
137
330
148
330
147
330
146
330
173
330
174
330
145
330
175
330
138
330
144
 75
     1
 76
     0
 52
45.0
 41
0.1
 77
     0
 78
     1
 53
45.0
 43
0.0
 44
0.0
 45
-0.0707106781186548
 46
0.0707106781186548
 79
     0
 98
        1
 10
0.0
 20
0.0
  0
ENDBLK
  5
49
330
47
100
AcDbEntity
  8
0
100
AcDbBlockEnd
  0
BLOCK
  5
4B
330
4A
100
AcDbEntity
  8
0
100
AcDbBlockBegin
  2
_punkt
 70
     0
 10
201.6500002807288
 20
330.3692377816662
 30
0.0
  3
_punkt
  1

  0
LINE
  5
1BF
330
4A
100
AcDbEntity
  8
1
  6
Continuous
 62
     2
100
AcDbLine
 10
201.6500002807288
 20
330.3692377816662
 30
0.0
 11
206.6500002807278
 21
330.3692377816662
 31
0.0
  0
LINE
  5
1C0
330
4A
100
AcDbEntity
  8
1
  6
Continuous
 62
     2
100
AcDbLine
 10
201.6500002807288
 20
330.3692377816662
 30
0.0
 11
201.6500002807288
 21
325.3692377816661
 31
0.0
  0
ENDBLK
  5
4C
330
4A
100
AcDbEntity
  8
0
100
AcDbBlockEnd
  0
BLOCK
  5
50
330
4D
100
AcDbEntity
  8
0
100
AcDbBlockBegin
  2
A4I_CS
 70
     0
 10
201.6500002807288
 20
325.3692377816661
 30
0.0
  3
A4I_CS
  1

  0
INSERT
  5
4E
330
4D
100
AcDbEntity
  8
1
100
AcDbBlockReference
  2
_rahmen
 10
201.6500002807288
 20
325.3692377816661
 30
0.0
  0
INSERT
  5
4F
330
4D
100
AcDbEntity
  8
1
100
AcDbBlockReference
  2
_punkt
 10
201.6500002807288
 20
330.3692377816662
 30
0.0
  0
ENDBLK
  5
51
330
4D
100
AcDbEntity
  8
0
100
AcDbBlockEnd
  0
BLOCK
  5
53
330
52
100
AcDbEntity
  8
0
100
AcDbBlockBegin
  2
D-QTC_1_5-TWIN-select__1
 70
     0
 10
103.7678317824947
 20
382.0884757253226
 30
0.0
  3
D-QTC_1_5-TWIN-select__1
  1

  0
LINE
  5
1C1
330
52
100
AcDbEntity
  8
0
  6
Continuous
 62
     7
100
AcDbLine
 10
162.0466963113326
 20
382.0884757253226
 30
0.0
 11
103.7678317824947
 21
398.9121347872177
 31
0.0
  0
LINE
  5
1C2
330
52
100
AcDbEntity
  8
0
  6
Continuous
 62
     7
100
AcDbLine
 10
169.9321726328056
 20
382.4093839425921
 30
0.0
 11
162.0466963113326
 21
382.0884757253226
 31
0.0
  0
LINE
  5
1C3
330
52
100
AcDbEntity
  8
0
  6
Continuous
 62
     7
100
AcDbLine
 10
169.9321726328056
 20
384.1422618057956
 30
0.0
 11
171.0321726328048
 21
385.0948897499578
 31
0.0
  0
LINE
  5
1C4
330
52
100
AcDbEntity
  8
0
  6
Continuous
 62
     7
100
AcDbLine
 10
169.9321726328056
 20
382.4093839425921
 30
0.0
 11
169.9321726328056
 21
384.1422618057956
 31
0.0
  0
LINE
  5
1C5
330
52
100
AcDbEntity
  8
0
  6
Continuous
 62
     7
100
AcDbLine
 10
171.0321726328048
 20
385.0948897499578
 30
0.0
 11
171.0321726328048
 21
383.3620118867543
 31
0.0
  0
LINE
  5
1C6
330
52
100
AcDbEntity
  8
0
  6
Continuous
 62
     7
100
AcDbLine
 10
171.0321726328037
 20
400.8863914746982
 30
0.0
 11
169.1025438262668
 21
408.6449000758759
 31
0.0
  0
LINE
  5
1C7
330
52
100
AcDbEntity
  8
0
  6
Continuous
 62
     7
100
AcDbLine
 10
168.0025438262676
 20
407.6922721317137
 30
0.0
 11
169.9321726328044
 21
399.9337635305359
 31
0.0
  0
LINE
  5
1C8
330
52
100
AcDbEntity
  8
0
  6
Continuous
 62
     7
100
AcDbLine
 10
168.0025438262676
 20
407.6922721317137
 30
0.0
 11
169.1025438262668
 21
408.6449000758759
 31
0.0
  0
LINE
  5
1C9
330
52
100
AcDbEntity
  8
0
  6
Continuous
 62
     7
100
AcDbLine
 10
171.0321726328048
 20
383.3620118867543
 30
0.0
 11
169.9321726328056
 21
382.4093839425921
 31
0.0
  0
LINE
  5
1CA
330
52
100
AcDbEntity
  8
0
  6
Continuous
 62
     7
100
AcDbLine
 10
103.7678317824947
 20
398.9121347872177
 30
0.0
 11
103.7678317824947
 21
405.8403380174844
 31
0.0
  0
LINE
  5
1CB
330
52
100
AcDbEntity
  8
0
  6
Continuous
 62
     7
100
AcDbLine
 10
103.7678317824947
 20
413.6345666515496
 30
0.0
 11
103.7678317824947
 21
419.0337635308762
 31
0.0
  0
LINE
  5
1CC
330
52
100
AcDbEntity
  8
0
  6
Continuous
 62
     7
100
AcDbLine
 10
120.5960046611306
 20
419.212297696425
 30
0.0
 11
120.2668434575569
 21
420.0861273486682
 31
0.0
  0
LINE
  5
1CD
330
52
100
AcDbEntity
  8
0
  6
Continuous
 62
     7
100
AcDbLine
 10
121.6960046611298
 20
420.1649256405872
 30
0.0
 11
120.5960046611306
 21
419.212297696425
 31
0.0
  0
LINE
  5
1CE
330
52
100
AcDbEntity
  8
0
  6
Continuous
 62
     7
100
AcDbLine
 10
141.9759241438874
 20
416.4756806637891
 30
0.0
 11
139.1180403114077
 21
415.8717387475484
 31
0.0
  0
LINE
  5
1CF
330
52
100
AcDbEntity
  8
0
  6
Continuous
 62
     7
100
AcDbLine
 10
138.0180403114085
 20
414.9191108033861
 30
0.0
 11
140.8759241438882
 21
415.5230527196268
 31
0.0
  0
LINE
  5
1D0
330
52
100
AcDbEntity
  8
0
  6
Continuous
 62
     7
100
AcDbLine
 10
138.4805403114042
 20
415.3196475526328
 30
0.0
 11
121.6960046611298
 21
420.1649256405872
 31
0.0
  0
LINE
  5
1D1
330
52
100
AcDbEntity
  8
0
  6
Continuous
 62
     7
100
AcDbLine
 10
171.0321726328037
 20
395.487194595374
 30
0.0
 11
171.0321726328037
 21
400.8863914746982
 31
0.0
  0
LINE
  5
1D2
330
52
100
AcDbEntity
  8
0
  6
Continuous
 62
     7
100
AcDbLine
 10
171.0321726328037
 20
400.8863914746982
 30
0.0
 11
169.9321726328044
 21
399.9337635305359
 31
0.0
  0
LINE
  5
1D3
330
52
100
AcDbEntity
  8
0
  6
Continuous
 62
     7
100
AcDbLine
 10
169.9321726328045
 20
394.5345666512118
 30
0.0
 11
171.0321726328037
 21
395.487194595374
 31
0.0
  0
LINE
  5
1D4
330
52
100
AcDbEntity
  8
0
  6
Continuous
 62
     7
100
AcDbLine
 10
169.9321726328044
 20
399.9337635305359
 30
0.0
 11
169.9321726328045
 21
394.5345666512118
 31
0.0
  0
LINE
  5
1D5
330
52
100
AcDbEntity
  8
0
  6
Continuous
 62
     7
100
AcDbLine
 10
103.7678317824947
 20
419.0337635308762
 30
0.0
 11
105.6974605890315
 21
425.6782004211638
 31
0.0
  0
LINE
  5
1D6
330
52
100
AcDbEntity
  8
0
  6
Continuous
 62
     7
100
AcDbLine
 10
118.5943344336408
 20
423.2253642204352
 30
0.0
 11
106.7974605890308
 21
426.630828365326
 31
0.0
  0
LINE
  5
1D7
330
52
100
AcDbEntity
  8
0
  6
Continuous
 62
     7
100
AcDbLine
 10
105.6974605890315
 20
425.6782004211638
 30
0.0
 11
117.4943344336416
 21
422.272736276273
 31
0.0
  0
LINE
  5
1D8
330
52
100
AcDbEntity
  8
0
  6
Continuous
 62
     7
100
AcDbLine
 10
120.2668434575569
 20
420.0861273486682
 30
0.0
 11
121.3668434575561
 21
421.0387552928305
 31
0.0
  0
LINE
  5
1D9
330
52
100
AcDbEntity
  8
0
  6
Continuous
 62
     7
100
AcDbLine
 10
121.6960046611298
 20
420.1649256405872
 30
0.0
 11
121.3668434575561
 21
421.0387552928305
 31
0.0
  0
LINE
  5
1DA
330
52
100
AcDbEntity
  8
0
  6
Continuous
 62
     7
100
AcDbLine
 10
121.3668434575561
 20
421.0387552928305
 30
0.0
 11
118.5943344336408
 21
423.2253642204352
 31
0.0
  0
LINE
  5
1DB
330
52
100
AcDbEntity
  8
0
  6
Continuous
 62
     7
100
AcDbLine
 10
117.4943344336416
 20
422.272736276273
 30
0.0
 11
120.2668434575569
 21
420.0861273486682
 31
0.0
  0
LINE
  5
1DC
330
52
100
AcDbEntity
  8
0
  6
Continuous
 62
     7
100
AcDbLine
 10
118.5943344336408
 20
423.2253642204352
 30
0.0
 11
117.4943344336416
 21
422.272736276273
 31
0.0
  0
LINE
  5
1DD
330
52
100
AcDbEntity
  8
0
  6
Continuous
 62
     7
100
AcDbLine
 10
106.7974605890308
 20
426.630828365326
 30
0.0
 11
105.6974605890315
 21
425.6782004211638
 31
0.0
  0
LINE
  5
1DE
330
52
100
AcDbEntity
  8
0
  6
Continuous
 62
     7
100
AcDbLine
 10
169.1025438262668
 20
408.6449000758759
 30
0.0
 11
141.9759241438874
 21
416.4756806637891
 31
0.0
  0
LINE
  5
1DF
330
52
100
AcDbEntity
  8
0
  6
Continuous
 62
     7
100
AcDbLine
 10
140.8759241438882
 20
415.5230527196268
 30
0.0
 11
168.0025438262676
 21
407.6922721317137
 31
0.0
  0
LINE
  5
1E0
330
52
100
AcDbEntity
  8
0
  6
Continuous
 62
     7
100
AcDbLine
 10
140.8759241438882
 20
415.5230527196268
 30
0.0
 11
141.9759241438874
 21
416.4756806637891
 31
0.0
  0
LINE
  5
1E1
330
52
100
AcDbEntity
  8
0
  6
Continuous
 62
     7
100
AcDbLine
 10
138.0180403114085
 20
414.9191108033861
 30
0.0
 11
139.1180403114077
 21
415.8717387475484
 31
0.0
  0
LINE
  5
1E2
330
52
100
AcDbEntity
  8
0
  6
Continuous
 62
     7
100
AcDbLine
 10
138.0180403114085
 20
414.1829892101654
 30
0.0
 11
138.0180403114085
 21
414.9191108033861
 31
0.0
  0
LINE
  5
1E3
330
52
100
AcDbEntity
  8
0
  6
Continuous
 62
     7
100
AcDbLine
 10
138.0180403114085
 20
414.1829892101654
 30
0.0
 11
120.5960046611306
 21
419.212297696425
 31
0.0
  0
SPLINE
  5
1E4
330
52
100
AcDbEntity
  8
0
  6
Continuous
 62
     7
100
AcDbSpline
210
0.0
220
0.0
230
1.0
 70
     8
 71
     3
 72
    13
 73
     9
 74
     7
 42
0.000000001
 43
0.0000000001
 44
0.00000001
 40
0.0
 40
0.0
 40
0.0
 40
0.0
 40
1.618800875635142
 40
3.29666296063548
 40
5.042045806820558
 40
6.857713221237791
 40
8.741157514550014
 40
10.68531582207249
 40
10.68531582207249
 40
10.68531582207249
 40
10.68531582207249
 10
171.0321726328037
 20
395.487194595374
 30
0.0
 10
170.8152659457819
 20
394.9917738932172
 30
0.0
 10
170.3735388441367
 20
393.9828572858274
 30
0.0
 10
170.0279169383201
 20
392.3271417635946
 30
0.0
 10
169.9054646930203
 20
390.5807124724668
 30
0.0
 10
170.0363776202576
 20
388.7655474715246
 30
0.0
 10
170.3933688527449
 20
386.9119991159349
 30
0.0
 10
170.8169981440587
 20
385.7069643519761
 30
0.0
 10
171.0321726328048
 20
385.0948897499578
 30
0.0
 11
171.0321726328037
 21
395.487194595374
 31
0.0
 11
170.4334741821908
 21
393.9831745005091
 31
0.0
 11
170.0696959914821
 21
392.3452225440362
 31
0.0
 11
169.9476725474395
 21
390.6041103807766
 31
0.0
 11
170.0696959914825
 21
388.7925479492514
 31
0.0
 11
170.4334741821916
 21
386.9445685564475
 31
0.0
 11
171.0321726328048
 21
385.0948897499578
 31
0.0
  0
SPLINE
  5
1E5
330
52
100
AcDbEntity
  8
0
  6
Continuous
 62
     7
100
AcDbSpline
210
0.0
220
0.0
230
1.0
 70
     8
 71
     3
 72
    11
 73
     7
 74
     5
 42
0.000000001
 43
0.0000000001
 44
0.00000001
 40
0.0
 40
0.0
 40
0.0
 40
0.0
 40
1.851422095564472
 40
3.785240840664123
 40
5.805674702656514
 40
7.908935340366201
 40
7.908935340366201
 40
7.908935340366201
 40
7.908935340366201
 10
103.7678317824947
 20
405.8403380174844
 30
0.0
 10
103.938673474629
 20
406.4350541118645
 30
0.0
 10
104.287960071586
 20
407.6509538577585
 30
0.0
 10
104.409293336695
 20
409.5945968997414
 30
0.0
 10
104.2713323313294
 20
411.6169451131292
 30
0.0
 10
103.9378977123998
 20
412.9530804574687
 30
0.0
 10
103.7678317824947
 20
413.6345666515496
 30
0.0
 11
103.7678317824947
 21
405.8403380174844
 31
0.0
 11
104.2157208198772
 21
407.6367675847839
 31
0.0
 11
104.3661791078683
 21
409.5647243398304
 31
0.0
 11
104.2157208198772
 21
411.5795482279502
 31
0.0
 11
103.7678317824947
 21
413.6345666515496
 31
0.0
  0
SPLINE
  5
1E6
330
52
100
AcDbEntity
  8
0
  6
Continuous
 62
     7
100
AcDbSpline
210
0.0
220
0.0
230
1.0
 70
     8
 71
     3
 72
    13
 73
     9
 74
     7
 42
0.000000001
 43
0.0000000001
 44
0.00000001
 40
0.0
 40
0.0
 40
0.0
 40
0.0
 40
1.618800875635142
 40
3.29666296063548
 40
5.042045806820556
 40
6.857713221237787
 40
8.741157514550004
 40
10.68531582207249
 40
10.68531582207249
 40
10.68531582207249
 40
10.68531582207249
 10
169.9321726328045
 20
394.5345666512118
 30
0.0
 10
169.7152659457827
 20
394.039145949055
 30
0.0
 10
169.2735388441375
 20
393.0302293416654
 30
0.0
 10
168.9279169383209
 20
391.3745138194323
 30
0.0
 10
168.8054646930211
 20
389.6280845283046
 30
0.0
 10
168.9363776202584
 20
387.8129195273623
 30
0.0
 10
169.2933688527457
 20
385.9593711717727
 30
0.0
 10
169.7169981440595
 20
384.7543364078139
 30
0.0
 10
169.9321726328056
 20
384.1422618057956
 30
0.0
 11
169.9321726328045
 21
394.5345666512118
 31
0.0
 11
169.3334741821916
 21
393.0305465563469
 31
0.0
 11
168.969695991483
 21
391.392594599874
 31
0.0
 11
168.8476725474403
 21
389.6514824366144
 31
0.0
 11
168.9696959914833
 21
387.8399200050892
 31
0.0
 11
169.3334741821924
 21
385.9919406122853
 31
0.0
 11
169.9321726328056
 21
384.1422618057956
 31
0.0
  0
ENDBLK
  5
54
330
52
100
AcDbEntity
  8
0
100
AcDbBlockEnd
  0
BLOCK
  5
57
330
55
100
AcDbEntity
  8
0
100
AcDbBlockBegin
  2
AllgSicht1
 70
     0
 10
137.4000020000011
 20
403.5
 30
0.0
  3
AllgSicht1
  1

  0
INSERT
  5
56
330
55
100
AcDbEntity
  8
0
100
AcDbBlockReference
  2
D-QTC_1_5-TWIN-select__1
 10
103.7678317824947
 20
382.0884757253226
 30
0.0
  0
ENDBLK
  5
58
330
55
100
AcDbEntity
  8
0
100
AcDbBlockEnd
  0
BLOCK
  5
5A
330
59
100
AcDbEntity
  8
0
100
AcDbBlockBegin
  2
D-QTC_1_5-TWIN-select__2
 70
     0
 10
-22.69999977467479
 20
405.4000000238434
 30
0.0
  3
D-QTC_1_5-TWIN-select__2
  1

  0
LINE
  5
1E7
330
59
100
AcDbEntity
  8
0
  6
Continuous
 62
     7
100
AcDbLine
 10
51.47185680490603
 20
407.6000000238419
 30
0.0
 11
20.14873445325327
 21
407.6000000238419
 31
0.0
  0
LINE
  5
1E8
330
59
100
AcDbEntity
  8
0
  6
Continuous
 62
     7
100
AcDbLine
 10
-20.47185635289455
 20
405.4000000238434
 30
0.0
 11
-6.84999977333121
 21
405.4000000238434
 31
0.0
  0
LINE
  5
1E9
330
59
100
AcDbEntity
  8
0
  6
Continuous
 62
     7
100
AcDbLine
 10
-3.26849949177476
 20
405.4000000238434
 30
0.0
 11
-3.64858211075479
 21
405.4000000238434
 31
0.0
  0
LINE
  5
1EA
330
59
100
AcDbEntity
  8
0
  6
Continuous
 62
     7
100
AcDbLine
 10
16.84873445326365
 20
405.4000000238434
 30
0.0
 11
-3.26849949177476
 21
405.4000000238434
 31
0.0
  0
LINE
  5
1EB
330
59
100
AcDbEntity
  8
0
  6
Continuous
 62
     7
100
AcDbLine
 10
-6.84999977333121
 20
405.4000000238434
 30
0.0
 11
-3.64858211075479
 21
405.4000000238434
 31
0.0
  0
LINE
  5
1EC
330
59
100
AcDbEntity
  8
0
  6
Continuous
 62
     7
100
AcDbLine
 10
-22.69999977467479
 20
405.4000000238434
 30
0.0
 11
-20.47185635289455
 21
405.4000000238434
 31
0.0
  0
LINE
  5
1ED
330
59
100
AcDbEntity
  8
0
  6
Continuous
 62
     7
100
AcDbLine
 10
-22.69999977467479
 20
407.6000000238419
 30
0.0
 11
-22.69999977467479
 21
405.4000000238434
 31
0.0
  0
LINE
  5
1EE
330
59
100
AcDbEntity
  8
0
  6
Continuous
 62
     7
100
AcDbLine
 10
-20.47185635289455
 20
407.6000000238419
 30
0.0
 11
-20.47185635289455
 21
405.4000000238434
 31
0.0
  0
LINE
  5
1EF
330
59
100
AcDbEntity
  8
0
  6
Continuous
 62
     7
100
AcDbLine
 10
-6.84999977333122
 20
407.6000000238419
 30
0.0
 11
-6.84999977333121
 21
405.4000000238434
 31
0.0
  0
LINE
  5
1F0
330
59
100
AcDbEntity
  8
0
  6
Continuous
 62
     7
100
AcDbLine
 10
-3.26849949177479
 20
407.6000000238419
 30
0.0
 11
-3.26849949177476
 21
405.4000000238434
 31
0.0
  0
LINE
  5
1F1
330
59
100
AcDbEntity
  8
0
  6
Continuous
 62
     7
100
AcDbLine
 10
-20.47185635289455
 20
407.6000000238419
 30
0.0
 11
-22.69999977467479
 21
407.6000000238419
 31
0.0
  0
LINE
  5
1F2
330
59
100
AcDbEntity
  8
0
  6
Continuous
 62
     7
100
AcDbLine
 10
-3.64858211075479
 20
405.4000000238434
 30
0.0
 11
-3.64858211075482
 21
407.6000000238419
 31
0.0
  0
LINE
  5
1F3
330
59
100
AcDbEntity
  8
0
  6
Continuous
 62
     7
100
AcDbLine
 10
-3.26849949177479
 20
407.6000000238419
 30
0.0
 11
-3.64858211075482
 21
407.6000000238419
 31
0.0
  0
LINE
  5
1F4
330
59
100
AcDbEntity
  8
0
  6
Continuous
 62
     7
100
AcDbLine
 10
20.14873445325327
 20
407.6000000238419
 30
0.0
 11
16.84873445326362
 21
407.6000000238419
 31
0.0
  0
LINE
  5
1F5
330
59
100
AcDbEntity
  8
0
  6
Continuous
 62
     7
100
AcDbLine
 10
53.70000022668752
 20
407.6000000238419
 30
0.0
 11
51.47185680490603
 21
407.6000000238419
 31
0.0
  0
LINE
  5
1F6
330
59
100
AcDbEntity
  8
0
  6
Continuous
 62
     7
100
AcDbLine
 10
20.14873445325331
 20
405.4000000238434
 30
0.0
 11
51.47185680490603
 21
405.4000000238434
 31
0.0
  0
LINE
  5
1F7
330
59
100
AcDbEntity
  8
0
  6
Continuous
 62
     7
100
AcDbLine
 10
51.47185680490603
 20
405.4000000238434
 30
0.0
 11
51.47185680490603
 21
407.6000000238419
 31
0.0
  0
LINE
  5
1F8
330
59
100
AcDbEntity
  8
0
  6
Continuous
 62
     7
100
AcDbLine
 10
51.47185680490603
 20
405.4000000238434
 30
0.0
 11
53.70000022668752
 21
405.4000000238435
 31
0.0
  0
LINE
  5
1F9
330
59
100
AcDbEntity
  8
0
  6
Continuous
 62
     7
100
AcDbLine
 10
-6.84999977333122
 20
407.6000000238419
 30
0.0
 11
-20.47185635289455
 21
407.6000000238419
 31
0.0
  0
LINE
  5
1FA
330
59
100
AcDbEntity
  8
0
  6
Continuous
 62
     7
100
AcDbLine
 10
16.84873445326362
 20
407.6000000238419
 30
0.0
 11
-3.26849949177479
 21
407.6000000238419
 31
0.0
  0
LINE
  5
1FB
330
59
100
AcDbEntity
  8
0
  6
Continuous
 62
     7
100
AcDbLine
 10
-3.64858211075482
 20
407.6000000238419
 30
0.0
 11
-6.84999977333122
 21
407.6000000238419
 31
0.0
  0
LINE
  5
1FC
330
59
100
AcDbEntity
  8
0
  6
Continuous
 62
     7
100
AcDbLine
 10
53.70000022668752
 20
405.4000000238435
 30
0.0
 11
53.70000022668752
 21
407.6000000238419
 31
0.0
  0
LINE
  5
1FD
330
59
100
AcDbEntity
  8
0
  6
Continuous
 62
     7
100
AcDbLine
 10
16.84873445326365
 20
405.4000000238434
 30
0.0
 11
20.14873445325331
 21
405.4000000238434
 31
0.0
  0
LINE
  5
1FE
330
59
100
AcDbEntity
  8
0
  6
Continuous
 62
     7
100
AcDbLine
 10
20.14873445325331
 20
405.4000000238434
 30
0.0
 11
20.14873445325327
 21
407.6000000238419
 31
0.0
  0
LINE
  5
1FF
330
59
100
AcDbEntity
  8
0
  6
Continuous
 62
     7
100
AcDbLine
 10
16.84873445326365
 20
405.4000000238434
 30
0.0
 11
16.84873445326362
 21
407.6000000238419
 31
0.0
  0
ENDBLK
  5
5B
330
59
100
AcDbEntity
  8
0
100
AcDbBlockEnd
  0
BLOCK
  5
5E
330
5C
100
AcDbEntity
  8
0
100
AcDbBlockBegin
  2
Drfsicht1
 70
     0
 10
15.5
 20
406.5
 30
0.0
  3
Drfsicht1
  1

  0
INSERT
  5
5D
330
5C
100
AcDbEntity
  8
0
100
AcDbBlockReference
  2
D-QTC_1_5-TWIN-select__2
 10
-22.69999977467479
 20
405.4000000238434
 30
0.0
  0
DIMENSION
  5
20C
330
5C
100
AcDbEntity
  8
1
100
AcDbDimension
  2
*D17
 10
-30.47185635289455
 20
407.6000000238419
 30
0.0
 11
-33.89685635289455
 21
414.841340634471
 31
0.0
 70
    33
  1
<>
 71
     5
 42
-1.0
 53
90.0
  3
ME10_DIM_10
100
AcDbAlignedDimension
 13
-20.47185635289455
 23
405.4000000238434
 33
0.0
 14
-20.47185635289455
 24
407.6000000238419
 34
0.0
  0
ENDBLK
  5
5F
330
5C
100
AcDbEntity
  8
0
100
AcDbBlockEnd
  0
BLOCK
  5
61
330
60
100
AcDbEntity
  8
0
100
AcDbBlockBegin
  2
D-QTC_1_5-TWIN-select__3
 70
     0
 10
99.20000129919148
 20
447.099999838019
 30
0.0
  3
D-QTC_1_5-TWIN-select__3
  1

  0
LINE
  5
20D
330
60
100
AcDbEntity
  8
0
  6
Continuous
 62
     7
100
AcDbLine
 10
108.3053650529731
 20
447.099999838019
 30
0.0
 11
99.20000129919148
 21
450.0990448364281
 31
0.0
  0
LINE
  5
20E
330
60
100
AcDbEntity
  8
0
  6
Continuous
 62
     7
100
AcDbLine
 10
99.20000129919148
 20
452.0999998380147
 30
0.0
 11
99.20000129919148
 21
450.0990448364281
 31
0.0
  0
LINE
  5
20F
330
60
100
AcDbEntity
  8
0
  6
Continuous
 62
     7
100
AcDbLine
 10
99.20000129919276
 20
464.0999998380177
 30
0.0
 11
99.20000129919276
 21
470.3344553813889
 31
0.0
  0
LINE
  5
210
330
60
100
AcDbEntity
  8
0
  6
Continuous
 62
     7
100
AcDbLine
 10
156.5485836366338
 20
477.0492910067184
 30
0.0
 11
159.7500012992102
 21
478.6499998380099
 31
0.0
  0
LINE
  5
211
330
60
100
AcDbEntity
  8
0
  6
Continuous
 62
     7
100
AcDbLine
 10
156.1685010176538
 20
476.1499998380125
 30
0.0
 11
156.5485836366338
 21
477.0492910067184
 31
0.0
  0
LINE
  5
212
330
60
100
AcDbEntity
  8
0
  6
Continuous
 62
     7
100
AcDbLine
 10
136.0512670726154
 20
476.1499998380124
 30
0.0
 11
156.1685010176538
 21
476.1499998380125
 31
0.0
  0
LINE
  5
213
330
60
100
AcDbEntity
  8
0
  6
Continuous
 62
     7
100
AcDbLine
 10
136.0512670726154
 20
476.9999998380171
 30
0.0
 11
136.0512670726154
 21
476.1499998380124
 31
0.0
  0
LINE
  5
214
330
60
100
AcDbEntity
  8
0
  6
Continuous
 62
     7
100
AcDbLine
 10
132.7512670726257
 20
478.6499998380099
 30
0.0
 11
136.0512670726154
 21
476.9999998380171
 31
0.0
  0
LINE
  5
215
330
60
100
AcDbEntity
  8
0
  6
Continuous
 62
     7
100
AcDbLine
 10
101.428144720973
 20
478.6499998380099
 30
0.0
 11
132.7512670726257
 21
478.6499998380099
 31
0.0
  0
LINE
  5
216
330
60
100
AcDbEntity
  8
0
  6
Continuous
 62
     7
100
AcDbLine
 10
99.20000129919276
 20
470.3344553813889
 30
0.0
 11
101.428144720973
 21
478.6499998380099
 31
0.0
  0
LINE
  5
217
330
60
100
AcDbEntity
  8
0
  6
Continuous
 62
     7
100
AcDbLine
 10
175.6000013005538
 20
447.099999838019
 30
0.0
 11
108.3053650529731
 21
447.099999838019
 31
0.0
  0
LINE
  5
218
330
60
100
AcDbEntity
  8
0
  6
Continuous
 62
     7
100
AcDbLine
 10
175.6000013005538
 20
455.0999998380088
 30
0.0
 11
175.6000013005538
 21
447.099999838019
 31
0.0
  0
LINE
  5
219
330
60
100
AcDbEntity
  8
0
  6
Continuous
 62
     7
100
AcDbLine
 10
173.3718578787735
 20
478.6499998380099
 30
0.0
 11
175.6000013005538
 21
470.3344553813889
 31
0.0
  0
LINE
  5
21A
330
60
100
AcDbEntity
  8
0
  6
Continuous
 62
     7
100
AcDbLine
 10
159.7500012992102
 20
478.6499998380099
 30
0.0
 11
173.3718578787735
 21
478.6499998380099
 31
0.0
  0
LINE
  5
21B
330
60
100
AcDbEntity
  8
0
  6
Continuous
 62
     7
100
AcDbLine
 10
175.6000013005538
 20
470.3344553813889
 30
0.0
 11
175.6000013005538
 21
464.0999998380149
 31
0.0
  0
ARC
  5
21C
330
60
100
AcDbEntity
  8
0
  6
Continuous
 62
     7
100
AcDbCircle
 10
85.45227421432526
 20
458.0999998380177
 30
0.0
 40
15.00000000000002
100
AcDbArc
 50
336.4218215217857
 51
23.57817847820186
  0
ARC
  5
21D
330
60
100
AcDbEntity
  8
0
  6
Continuous
 62
     7
100
AcDbCircle
 10
189.909089321807
 20
459.5999998380119
 30
0.0
 40
14.99999999999995
100
AcDbArc
 50
162.5423968762658
 51
197.4576031237346
  0
ENDBLK
  5
62
330
60
100
AcDbEntity
  8
0
100
AcDbBlockEnd
  0
BLOCK
  5
65
330
63
100
AcDbEntity
  8
0
100
AcDbBlockBegin
  2
Rckans1
 70
     0
 10
137.400001525879
 20
462.8750003576279
 30
0.0
  3
Rckans1
  1

  0
INSERT
  5
64
330
63
100
AcDbEntity
  8
0
100
AcDbBlockReference
  2
D-QTC_1_5-TWIN-select__3
 10
99.20000129919148
 20
447.099999838019
 30
0.0
  0
ENDBLK
  5
66
330
63
100
AcDbEntity
  8
0
100
AcDbBlockEnd
  0
BLOCK
  5
68
330
67
100
AcDbEntity
  8
0
100
AcDbBlockBegin
  2
D-QTC_1_5-TWIN-select__4
 70
     0
 10
76.10000073909839
 20
447.0999998380189
 30
0.0
  3
D-QTC_1_5-TWIN-select__4
  1

  0
LINE
  5
21E
330
67
100
AcDbEntity
  8
0
  6
Continuous
 62
     7
100
AcDbLine
 10
76.10000073909839
 20
455.0999998380087
 30
0.0
 11
76.10000073909839
 21
464.0999998380147
 31
0.0
  0
LINE
  5
21F
330
67
100
AcDbEntity
  8
0
  6
Continuous
 62
     7
100
AcDbLine
 10
78.30000073909679
 20
455.0999998380087
 30
0.0
 11
78.30000073909679
 21
464.0999998380147
 31
0.0
  0
LINE
  5
220
330
67
100
AcDbEntity
  8
0
  6
Continuous
 62
     7
100
AcDbLine
 10
78.30000073909679
 20
464.0999998380147
 30
0.0
 11
78.30000073909679
 21
470.3344553813888
 31
0.0
  0
LINE
  5
221
330
67
100
AcDbEntity
  8
0
  6
Continuous
 62
     7
100
AcDbLine
 10
78.30000073909679
 20
447.0999998380189
 30
0.0
 11
78.30000073909679
 21
455.0999998380087
 31
0.0
  0
LINE
  5
222
330
67
100
AcDbEntity
  8
0
  6
Continuous
 62
     7
100
AcDbLine
 10
76.10000073909839
 20
478.6499998380098
 30
0.0
 11
78.30000073909687
 21
478.6499998380098
 31
0.0
  0
LINE
  5
223
330
67
100
AcDbEntity
  8
0
  6
Continuous
 62
     7
100
AcDbLine
 10
76.10000073909839
 20
455.0999998380087
 30
0.0
 11
78.30000073909679
 21
455.0999998380087
 31
0.0
  0
LINE
  5
224
330
67
100
AcDbEntity
  8
0
  6
Continuous
 62
     7
100
AcDbLine
 10
78.30000073909679
 20
470.3344553813888
 30
0.0
 11
78.30000073909687
 21
478.6499998380098
 31
0.0
  0
LINE
  5
225
330
67
100
AcDbEntity
  8
0
  6
Continuous
 62
     7
100
AcDbLine
 10
78.30000073909679
 20
447.0999998380189
 30
0.0
 11
76.10000073909839
 21
447.0999998380189
 31
0.0
  0
LINE
  5
226
330
67
100
AcDbEntity
  8
0
  6
Continuous
 62
     7
100
AcDbLine
 10
76.10000073909839
 20
455.0999998380087
 30
0.0
 11
76.10000073909839
 21
447.0999998380189
 31
0.0
  0
LINE
  5
227
330
67
100
AcDbEntity
  8
0
  6
Continuous
 62
     7
100
AcDbLine
 10
76.10000073909839
 20
470.3344553813888
 30
0.0
 11
78.30000073909679
 21
470.3344553813888
 31
0.0
  0
LINE
  5
228
330
67
100
AcDbEntity
  8
0
  6
Continuous
 62
     7
100
AcDbLine
 10
76.10000073909839
 20
470.3344553813888
 30
0.0
 11
76.10000073909839
 21
464.0999998380147
 31
0.0
  0
LINE
  5
229
330
67
100
AcDbEntity
  8
0
  6
Continuous
 62
     7
100
AcDbLine
 10
78.30000073909679
 20
464.0999998380147
 30
0.0
 11
76.10000073909839
 21
464.0999998380147
 31
0.0
  0
LINE
  5
22A
330
67
100
AcDbEntity
  8
0
  6
Continuous
 62
     7
100
AcDbLine
 10
76.10000073909839
 20
478.6499998380098
 30
0.0
 11
76.10000073909839
 21
470.3344553813888
 31
0.0
  0
ENDBLK
  5
69
330
67
100
AcDbEntity
  8
0
100
AcDbBlockEnd
  0
BLOCK
  5
6C
330
6A
100
AcDbEntity
  8
0
100
AcDbBlockBegin
  2
SA_Links1
 70
     0
 10
77.20000076294019
 20
462.8750003576278
 30
0.0
  3
SA_Links1
  1

  0
INSERT
  5
6B
330
6A
100
AcDbEntity
  8
0
100
AcDbBlockReference
  2
D-QTC_1_5-TWIN-select__4
 10
76.10000073909839
 20
447.0999998380189
 30
0.0
  0
ENDBLK
  5
6D
330
6A
100
AcDbEntity
  8
0
100
AcDbBlockEnd
  0
BLOCK
  5
6F
330
6E
100
AcDbEntity
  8
0
100
AcDbBlockBegin
  2
D-QTC_1_5-TWIN-select__5
 70
     0
 10
-59.30000073909628
 20
447.099999838019
 30
0.0
  3
D-QTC_1_5-TWIN-select__5
  1

  0
LINE
  5
22B
330
6E
100
AcDbEntity
  8
0
  6
Continuous
 62
     7
100
AcDbLine
 10
-57.10000073909779
 20
464.0999998380177
 30
0.0
 11
-57.10000073909779
 21
452.0999998380147
 31
0.0
  0
LINE
  5
22C
330
6E
100
AcDbEntity
  8
0
  6
Continuous
 62
     7
100
AcDbLine
 10
-59.30000073909618
 20
447.099999838019
 30
0.0
 11
-57.10000073909779
 21
447.099999838019
 31
0.0
  0
LINE
  5
22D
330
6E
100
AcDbEntity
  8
0
  6
Continuous
 62
     7
100
AcDbLine
 10
-57.10000073909779
 20
450.0990448364281
 30
0.0
 11
-59.30000073909619
 21
450.0990448364281
 31
0.0
  0
LINE
  5
22E
330
6E
100
AcDbEntity
  8
0
  6
Continuous
 62
     7
100
AcDbLine
 10
-59.30000073909619
 20
450.0990448364281
 30
0.0
 11
-59.30000073909619
 21
452.0999998380147
 31
0.0
  0
LINE
  5
22F
330
6E
100
AcDbEntity
  8
0
  6
Continuous
 62
     7
100
AcDbLine
 10
-59.30000073909619
 20
450.0990448364281
 30
0.0
 11
-59.30000073909618
 21
447.099999838019
 31
0.0
  0
LINE
  5
230
330
6E
100
AcDbEntity
  8
0
  6
Continuous
 62
     7
100
AcDbLine
 10
-59.30000073909623
 20
464.0999998380177
 30
0.0
 11
-59.30000073909619
 21
452.0999998380147
 31
0.0
  0
LINE
  5
231
330
6E
100
AcDbEntity
  8
0
  6
Continuous
 62
     7
100
AcDbLine
 10
-59.30000073909619
 20
452.0999998380147
 30
0.0
 11
-57.10000073909779
 21
452.0999998380147
 31
0.0
  0
LINE
  5
232
330
6E
100
AcDbEntity
  8
0
  6
Continuous
 62
     7
100
AcDbLine
 10
-57.10000073909779
 20
478.6499998380099
 30
0.0
 11
-59.30000073909628
 21
478.6499998380099
 31
0.0
  0
LINE
  5
233
330
6E
100
AcDbEntity
  8
0
  6
Continuous
 62
     7
100
AcDbLine
 10
-59.30000073909628
 20
478.6499998380099
 30
0.0
 11
-59.30000073909625
 21
470.3344553813889
 31
0.0
  0
LINE
  5
234
330
6E
100
AcDbEntity
  8
0
  6
Continuous
 62
     7
100
AcDbLine
 10
-57.10000073909779
 20
470.3344553813889
 30
0.0
 11
-57.10000073909779
 21
478.6499998380099
 31
0.0
  0
LINE
  5
235
330
6E
100
AcDbEntity
  8
0
  6
Continuous
 62
     7
100
AcDbLine
 10
-59.30000073909625
 20
470.3344553813889
 30
0.0
 11
-59.30000073909623
 21
464.0999998380177
 31
0.0
  0
LINE
  5
236
330
6E
100
AcDbEntity
  8
0
  6
Continuous
 62
     7
100
AcDbLine
 10
-59.30000073909623
 20
464.0999998380177
 30
0.0
 11
-57.10000073909779
 21
464.0999998380177
 31
0.0
  0
LINE
  5
237
330
6E
100
AcDbEntity
  8
0
  6
Continuous
 62
     7
100
AcDbLine
 10
-57.10000073909779
 20
470.3344553813889
 30
0.0
 11
-59.30000073909625
 21
470.3344553813889
 31
0.0
  0
LINE
  5
238
330
6E
100
AcDbEntity
  8
0
  6
Continuous
 62
     7
100
AcDbLine
 10
-57.10000073909779
 20
464.0999998380177
 30
0.0
 11
-57.10000073909779
 21
470.3344553813889
 31
0.0
  0
LINE
  5
239
330
6E
100
AcDbEntity
  8
0
  6
Continuous
 62
     7
100
AcDbLine
 10
-57.10000073909779
 20
452.0999998380147
 30
0.0
 11
-57.10000073909779
 21
450.0990448364281
 31
0.0
  0
LINE
  5
23A
330
6E
100
AcDbEntity
  8
0
  6
Continuous
 62
     7
100
AcDbLine
 10
-57.10000073909779
 20
447.099999838019
 30
0.0
 11
-57.10000073909779
 21
450.0990448364281
 31
0.0
  0
ENDBLK
  5
70
330
6E
100
AcDbEntity
  8
0
100
AcDbBlockEnd
  0
BLOCK
  5
73
330
71
100
AcDbEntity
  8
0
100
AcDbBlockBegin
  2
SA_Rechts1
 70
     0
 10
-58.20000076293965
 20
462.8750003576279
 30
0.0
  3
SA_Rechts1
  1

  0
INSERT
  5
72
330
71
100
AcDbEntity
  8
0
100
AcDbBlockReference
  2
D-QTC_1_5-TWIN-select__5
 10
-59.30000073909628
 20
447.099999838019
 30
0.0
  0
ENDBLK
  5
74
330
71
100
AcDbEntity
  8
0
100
AcDbBlockEnd
  0
BLOCK
  5
76
330
75
100
AcDbEntity
  8
0
100
AcDbBlockBegin
  2
D-QTC_1_5-TWIN-select__6
 70
     0
 10
-22.6999997746749
 20
447.099999838019
 30
0.0
  3
D-QTC_1_5-TWIN-select__6
  1

  0
LINE
  5
23B
330
75
100
AcDbEntity
  8
0
  6
Continuous
 62
     7
100
AcDbLine
 10
53.70000022668742
 20
450.0990448364281
 30
0.0
 11
44.59463647290572
 21
447.099999838019
 31
0.0
  0
LINE
  5
23C
330
75
100
AcDbEntity
  8
0
  6
Continuous
 62
     7
100
AcDbLine
 10
-20.47185635289466
 20
478.6499998380099
 30
0.0
 11
-6.84999977333132
 21
478.6499998380099
 31
0.0
  0
LINE
  5
23D
330
75
100
AcDbEntity
  8
0
  6
Continuous
 62
     7
100
AcDbLine
 10
20.1487344532532
 20
478.6499998380099
 30
0.0
 11
51.47185680490593
 21
478.6499998380099
 31
0.0
  0
LINE
  5
23E
330
75
100
AcDbEntity
  8
0
  6
Continuous
 62
     7
100
AcDbLine
 10
-22.69999977467489
 20
447.099999838019
 30
0.0
 11
-22.69999977467489
 21
455.0999998380088
 31
0.0
  0
LINE
  5
23F
330
75
100
AcDbEntity
  8
0
  6
Continuous
 62
     7
100
AcDbLine
 10
44.59463647290572
 20
447.099999838019
 30
0.0
 11
-22.69999977467489
 21
447.099999838019
 31
0.0
  0
LINE
  5
240
330
75
100
AcDbEntity
  8
0
  6
Continuous
 62
     7
100
AcDbLine
 10
53.70000022668742
 20
450.0990448364281
 30
0.0
 11
53.70000022668742
 21
452.0999998380147
 31
0.0
  0
LINE
  5
241
330
75
100
AcDbEntity
  8
0
  6
Continuous
 62
     7
100
AcDbLine
 10
53.70000022668612
 20
470.3344553813889
 30
0.0
 11
53.70000022668612
 21
464.0999998380177
 31
0.0
  0
LINE
  5
242
330
75
100
AcDbEntity
  8
0
  6
Continuous
 62
     7
100
AcDbLine
 10
51.47185680490593
 20
478.6499998380099
 30
0.0
 11
53.70000022668612
 21
470.3344553813889
 31
0.0
  0
LINE
  5
243
330
75
100
AcDbEntity
  8
0
  6
Continuous
 62
     7
100
AcDbLine
 10
-6.84999977333132
 20
478.6499998380099
 30
0.0
 11
-3.6485821107549
 21
477.0492910067183
 31
0.0
  0
LINE
  5
244
330
75
100
AcDbEntity
  8
0
  6
Continuous
 62
     7
100
AcDbLine
 10
16.84873445326353
 20
476.9999998380171
 30
0.0
 11
20.1487344532532
 21
478.6499998380099
 31
0.0
  0
LINE
  5
245
330
75
100
AcDbEntity
  8
0
  6
Continuous
 62
     7
100
AcDbLine
 10
-3.26849949177487
 20
476.1499998380124
 30
0.0
 11
-3.6485821107549
 21
477.0492910067183
 31
0.0
  0
LINE
  5
246
330
75
100
AcDbEntity
  8
0
  6
Continuous
 62
     7
100
AcDbLine
 10
16.84873445326355
 20
476.1499998380124
 30
0.0
 11
-3.26849949177487
 21
476.1499998380124
 31
0.0
  0
LINE
  5
247
330
75
100
AcDbEntity
  8
0
  6
Continuous
 62
     7
100
AcDbLine
 10
16.84873445326355
 20
476.1499998380124
 30
0.0
 11
16.84873445326353
 21
476.9999998380171
 31
0.0
  0
LINE
  5
248
330
75
100
AcDbEntity
  8
0
  6
Continuous
 62
     7
100
AcDbLine
 10
-22.6999997746749
 20
470.3344553813889
 30
0.0
 11
-20.47185635289466
 21
478.6499998380099
 31
0.0
  0
LINE
  5
249
330
75
100
AcDbEntity
  8
0
  6
Continuous
 62
     7
100
AcDbLine
 10
-22.6999997746749
 20
464.0999998380148
 30
0.0
 11
-22.6999997746749
 21
470.3344553813889
 31
0.0
  0
ARC
  5
24A
330
75
100
AcDbEntity
  8
0
  6
Continuous
 62
     7
100
AcDbCircle
 10
-37.00908779592812
 20
459.5999998380119
 30
0.0
 40
15.00000000000002
100
AcDbArc
 50
342.5423968762655
 51
17.45760312373377
  0
ARC
  5
24B
330
75
100
AcDbEntity
  8
0
  6
Continuous
 62
     7
100
AcDbCircle
 10
67.44772731155362
 20
458.0999998380177
 30
0.0
 40
14.99999999999998
100
AcDbArc
 50
156.4218215217982
 51
203.5781784782144
  0
ENDBLK
  5
77
330
75
100
AcDbEntity
  8
0
100
AcDbBlockEnd
  0
BLOCK
  5
7A
330
78
100
AcDbEntity
  8
0
100
AcDbBlockBegin
  2
Vordans1
 70
     0
 10
15.49999999999989
 20
462.8750003576279
 30
0.0
  3
Vordans1
  1

  0
INSERT
  5
79
330
78
100
AcDbEntity
  8
0
100
AcDbBlockReference
  2
D-QTC_1_5-TWIN-select__6
 10
-22.6999997746749
 20
447.099999838019
 30
0.0
  0
DIMENSION
  5
256
330
78
100
AcDbEntity
  8
1
100
AcDbDimension
  2
*D18
 10
-32.69999977467489
 20
447.099999838019
 30
0.0
 11
-36.12499977467489
 21
461.80930887225
 31
0.0
 70
    32
  1
<>
 71
     5
 42
-1.0
 53
90.0
  3
ME10_DIM_11
100
AcDbAlignedDimension
 13
-20.47185635289466
 23
478.6499998380099
 33
0.0
 14
-22.69999977467489
 24
447.099999838019
 34
0.0
 50
90.0
100
AcDbRotatedDimension
  0
DIMENSION
  5
261
330
78
100
AcDbEntity
  8
1
100
AcDbDimension
  2
*D19
 10
-22.6999997746749
 20
437.099999838019
 30
0.0
 11
17.99573303362917
 21
440.524999838019
 31
0.0
 70
    32
  1
<>
 71
     5
 42
-1.0
 53
0.00013888888889
  3
ME10_DIM_12
100
AcDbAlignedDimension
 13
53.70000022668742
 23
450.0990448364281
 33
0.0
 14
-22.69999977467489
 24
447.099999838019
 34
0.0
100
AcDbRotatedDimension
  0
ENDBLK
  5
7B
330
78
100
AcDbEntity
  8
0
100
AcDbBlockEnd
  0
BLOCK
  5
84
330
7C
100
AcDbEntity
  8
0
100
AcDbBlockBegin
  2
1
 70
     0
 10
0.0
 20
0.0
 30
0.0
  3
1
  1

  0
INSERT
  5
7D
330
7C
100
AcDbEntity
  8
0
100
AcDbBlockReference
  2
A4I_CS
 10
201.6500002807288
 20
325.3692377816661
 30
0.0
  0
INSERT
  5
7E
330
7C
100
AcDbEntity
  8
0
100
AcDbBlockReference
  2
AllgSicht1
 10
137.4000020000011
 20
403.5
 30
0.0
  0
INSERT
  5
7F
330
7C
100
AcDbEntity
  8
0
100
AcDbBlockReference
  2
Drfsicht1
 10
15.5
 20
406.5
 30
0.0
  0
INSERT
  5
80
330
7C
100
AcDbEntity
  8
0
100
AcDbBlockReference
  2
Rckans1
 10
137.400001525879
 20
462.8750003576279
 30
0.0
  0
INSERT
  5
81
330
7C
100
AcDbEntity
  8
0
100
AcDbBlockReference
  2
SA_Links1
 10
77.20000076294019
 20
462.8750003576278
 30
0.0
  0
INSERT
  5
82
330
7C
100
AcDbEntity
  8
0
100
AcDbBlockReference
  2
SA_Rechts1
 10
-58.20000076293965
 20
462.8750003576279
 30
0.0
  0
INSERT
  5
83
330
7C
100
AcDbEntity
  8
0
100
AcDbBlockReference
  2
Vordans1
 10
15.49999999999989
 20
462.8750003576279
 30
0.0
  0
ENDBLK
  5
85
330
7C
100
AcDbEntity
  8
0
100
AcDbBlockEnd
  0
BLOCK
  5
209
330
200
100
AcDbEntity
  8
0
100
AcDbBlockBegin
  2
*D17
 70
     1
 10
0.0
 20
0.0
 30
0.0
  3
*D17
  1

  0
LINE
  5
201
330
200
100
AcDbEntity
  8
1
  6
Continuous
 62
     2
100
AcDbLine
 10
-30.47185635289455
 20
405.4000000238433
 30
0.0
 11
-30.47185635289455
 21
398.4000000238433
 31
0.0
  0
LINE
  5
202
330
200
100
AcDbEntity
  8
1
  6
Continuous
 62
     2
100
AcDbLine
 10
-30.47185635289455
 20
407.6000000238419
 30
0.0
 11
-30.47185635289455
 21
405.4000000238433
 31
0.0
  0
LINE
  5
203
330
200
100
AcDbEntity
  8
1
  6
Continuous
 62
     2
100
AcDbLine
 10
-30.47185635289455
 20
418.078840634471
 30
0.0
 11
-30.47185635289455
 21
407.6000000238419
 31
0.0
  0
LINE
  5
204
330
200
100
AcDbEntity
  8
1
  6
Continuous
 62
     2
100
AcDbLine
 10
-20.47185635289455
 20
405.4000000238433
 30
0.0
 11
-31.97185635289455
 21
405.4000000238433
 31
0.0
  0
LINE
  5
205
330
200
100
AcDbEntity
  8
1
  6
Continuous
 62
     2
100
AcDbLine
 10
-20.47185635289455
 20
407.6000000238419
 30
0.0
 11
-31.97185635289455
 21
407.6000000238419
 31
0.0
  0
SOLID
  5
206
330
200
100
AcDbEntity
  8
1
 62
     2
100
AcDbTrace
 10
-30.93264009445044
 20
411.1000000238419
 30
0.0
 11
-30.01107261133867
 21
411.1000000238419
 31
0.0
 12
-30.47185635289455
 22
407.6000000238419
 32
0.0
 13
-30.47185635289455
 23
407.6000000238419
 33
0.0
  0
SOLID
  5
207
330
200
100
AcDbEntity
  8
1
 62
     2
100
AcDbTrace
 10
-30.01107261133867
 20
401.9000000238433
 30
0.0
 11
-30.93264009445044
 21
401.9000000238433
 31
0.0
 12
-30.47185635289455
 22
405.4000000238433
 32
0.0
 13
-30.47185635289455
 23
405.4000000238433
 33
0.0
  0
MTEXT
  5
208
330
200
100
AcDbEntity
  8
1
 62
     3
100
AcDbMText
 10
-32.32185635289455
 20
411.603840634471
 30
0.0
 40
3.5
 41
0.0
 71
     7
 72
     1
  1
2,2
  7
CONVERTER_11
 11
0.0
 21
1.0
 31
0.0
 73
     1
 44
0.60024009603842
  0
ENDBLK
  5
20A
330
200
100
AcDbEntity
  8
0
100
AcDbBlockEnd
  0
BLOCK
  5
253
330
24C
100
AcDbEntity
  8
0
100
AcDbBlockBegin
  2
*D18
 70
     1
 10
0.0
 20
0.0
 30
0.0
  3
*D18
  1

  0
LINE
  5
24D
330
24C
100
AcDbEntity
  8
1
  6
Continuous
 62
     2
100
AcDbLine
 10
-32.69999977467489
 20
447.099999838019
 30
0.0
 11
-32.69999977467489
 21
478.6499998380099
 31
0.0
  0
LINE
  5
24E
330
24C
100
AcDbEntity
  8
1
  6
Continuous
 62
     2
100
AcDbLine
 10
-20.47185635289466
 20
478.6499998380099
 30
0.0
 11
-34.19999977467489
 21
478.6499998380099
 31
0.0
  0
LINE
  5
24F
330
24C
100
AcDbEntity
  8
1
  6
Continuous
 62
     2
100
AcDbLine
 10
-22.69999977467489
 20
447.099999838019
 30
0.0
 11
-34.19999977467489
 21
447.099999838019
 31
0.0
  0
SOLID
  5
250
330
24C
100
AcDbEntity
  8
1
 62
     2
100
AcDbTrace
 10
-33.16078351623078
 20
450.599999838019
 30
0.0
 11
-32.23921603311901
 21
450.599999838019
 31
0.0
 12
-32.69999977467489
 22
447.099999838019
 32
0.0
 13
-32.69999977467489
 23
447.099999838019
 33
0.0
  0
SOLID
  5
251
330
24C
100
AcDbEntity
  8
1
 62
     2
100
AcDbTrace
 10
-32.23921603311901
 20
475.1499998380099
 30
0.0
 11
-33.16078351623078
 21
475.1499998380099
 31
0.0
 12
-32.69999977467489
 22
478.6499998380099
 32
0.0
 13
-32.69999977467489
 23
478.6499998380099
 33
0.0
  0
MTEXT
  5
252
330
24C
100
AcDbEntity
  8
1
 62
     3
100
AcDbMText
 10
-34.54999977467489
 20
455.94680887225
 30
0.0
 40
3.5
 41
0.0
 71
     7
 72
     1
  1
31,55
  7
CONVERTER_11
 11
0.0
 21
1.0
 31
0.0
 73
     1
 44
0.60024009603842
  0
ENDBLK
  5
254
330
24C
100
AcDbEntity
  8
0
100
AcDbBlockEnd
  0
BLOCK
  5
25E
330
257
100
AcDbEntity
  8
0
100
AcDbBlockBegin
  2
*D19
 70
     1
 10
0.0
 20
0.0
 30
0.0
  3
*D19
  1

  0
LINE
  5
258
330
257
100
AcDbEntity
  8
1
  6
Continuous
 62
     2
100
AcDbLine
 10
-22.6999997746749
 20
437.099999838019
 30
0.0
 11
53.70000022668742
 21
437.099999838019
 31
0.0
  0
LINE
  5
259
330
257
100
AcDbEntity
  8
1
  6
Continuous
 62
     2
100
AcDbLine
 10
53.70000022668742
 20
450.0990448364282
 30
0.0
 11
53.70000022668742
 21
435.599999838019
 31
0.0
  0
LINE
  5
25A
330
257
100
AcDbEntity
  8
1
  6
Continuous
 62
     2
100
AcDbLine
 10
-22.6999997746749
 20
447.099999838019
 30
0.0
 11
-22.6999997746749
 21
435.599999838019
 31
0.0
  0
SOLID
  5
25B
330
257
100
AcDbEntity
  8
1
 62
     2
100
AcDbTrace
 10
-19.1999997746749
 20
437.5607835795749
 30
0.0
 11
-19.1999997746749
 21
436.6392160964631
 31
0.0
 12
-22.6999997746749
 22
437.099999838019
 32
0.0
 13
-22.6999997746749
 23
437.099999838019
 33
0.0
  0
SOLID
  5
25C
330
257
100
AcDbEntity
  8
1
 62
     2
100
AcDbTrace
 10
50.20000022668742
 20
436.6392160964631
 30
0.0
 11
50.20000022668742
 21
437.5607835795749
 31
0.0
 12
53.70000022668742
 22
437.099999838019
 32
0.0
 13
53.70000022668742
 23
437.099999838019
 33
0.0
  0
MTEXT
  5
25D
330
257
100
AcDbEntity
  8
1
 62
     3
100
AcDbMText
 10
13.18323303362917
 20
438.949999838019
 30
0.0
 40
3.5
 41
0.0
 71
     7
 72
     1
  1
76,4
  7
CONVERTER_11
 11
0.9999999999970619
 21
2.424068405545306E-6
 31
0.0
 73
     1
 44
0.60024009603842
  0
ENDBLK
  5
25F
330
257
100
AcDbEntity
  8
0
100
AcDbBlockEnd
  0
ENDSEC
  0
SECTION
  2
ENTITIES
  0
INSERT
  5
86
330
1F
100
AcDbEntity
  8
1
100
AcDbBlockReference
  2
1
 10
0.0
 20
0.0
 30
0.0
  0
ENDSEC
  0
SECTION
  2
OBJECTS
  0
DICTIONARY
  5
C
330
0
100
AcDbDictionary
281
     1
  3
ACAD_GROUP
350
D
  3
ACAD_LAYOUT
350
1A
  3
ACAD_MATERIAL
350
3B
  3
ACAD_MLEADERSTYLE
350
289
  3
ACAD_MLINESTYLE
350
17
  3
ACAD_PLOTSETTINGS
350
19
  3
ACAD_PLOTSTYLENAME
350
E
  3
ACAD_TABLESTYLE
350
288
  3
ACAD_VISUALSTYLE
350
2A
  0
DICTIONARY
  5
D
102
{ACAD_REACTORS
330
C
102
}
330
C
100
AcDbDictionary
281
     1
  0
DICTIONARY
  5
1A
102
{ACAD_REACTORS
330
C
102
}
330
C
100
AcDbDictionary
281
     1
  3
Layout1
350
1E
  3
Layout2
350
26
  3
Model
350
22
  0
DICTIONARY
  5
3B
102
{ACAD_REACTORS
330
C
102
}
330
C
100
AcDbDictionary
281
     1
  3
ByBlock
350
3D
  3
ByLayer
350
3C
  3
Global
350
3E
  0
DICTIONARY
  5
289
102
{ACAD_REACTORS
330
C
102
}
330
C
100
AcDbDictionary
281
     1
  0
DICTIONARY
  5
17
102
{ACAD_REACTORS
330
C
102
}
330
C
100
AcDbDictionary
281
     1
  3
Standard
350
18
  0
DICTIONARY
  5
19
102
{ACAD_REACTORS
330
C
102
}
330
C
100
AcDbDictionary
281
     1
  0
ACDBDICTIONARYWDFLT
  5
E
102
{ACAD_REACTORS
330
C
102
}
330
C
100
AcDbDictionary
281
     1
  3
Normal
350
F
100
AcDbDictionaryWithDefault
340
F
  0
DICTIONARY
  5
288
102
{ACAD_REACTORS
330
C
102
}
330
C
100
AcDbDictionary
281
     1
  0
DICTIONARY
  5
2A
102
{ACAD_REACTORS
330
C
102
}
330
C
100
AcDbDictionary
281
     1
  3
2dWireframe
350
2F
  3
3D Hidden
350
31
  3
3dWireframe
350
30
  3
Basic
350
32
  3
Brighten
350
36
  3
ColorChange
350
3A
  3
Conceptual
350
34
  3
Dim
350
35
  3
Facepattern
350
39
  3
Flat
350
2B
  3
FlatWithEdges
350
2C
  3
Gouraud
350
2D
  3
GouraudWithEdges
350
2E
  3
Linepattern
350
38
  3
Realistic
350
33
  3
Thicken
350
37
  0
LAYOUT
  5
1E
102
{ACAD_REACTORS
330
1A
102
}
330
1A
100
AcDbPlotSettings
  1

  2
none_device
  4

  6

 40
0.0
 41
0.0
 42
0.0
 43
0.0
 44
0.0
 45
0.0
 46
0.0
 47
0.0
 48
0.0
 49
0.0
140
0.0
141
0.0
142
1.0
143
1.0
 70
   688
 72
     0
 73
     0
 74
     5
  7

 75
    16
 76
     0
 77
     2
 78
   300
147
1.0
148
0.0
149
0.0
100
AcDbLayout
  1
Layout1
 70
     1
 71
     1
 10
0.0
 20
0.0
 11
12.0
 21
9.0
 12
0.0
 22
0.0
 32
0.0
 14
1.00000000000000E+20
 24
1.00000000000000E+20
 34
1.00000000000000E+20
 15
-1.00000000000000E+20
 25
-1.00000000000000E+20
 35
-1.00000000000000E+20
146
0.0
 13
0.0
 23
0.0
 33
0.0
 16
1.0
 26
0.0
 36
0.0
 17
0.0
 27
1.0
 37
0.0
 76
     0
330
1B
  0
LAYOUT
  5
26
102
{ACAD_REACTORS
330
1A
102
}
330
1A
100
AcDbPlotSettings
  1

  2
none_device
  4

  6

 40
0.0
 41
0.0
 42
0.0
 43
0.0
 44
0.0
 45
0.0
 46
0.0
 47
0.0
 48
0.0
 49
0.0
140
0.0
141
0.0
142
1.0
143
1.0
 70
   688
 72
     0
 73
     0
 74
     5
  7

 75
    16
 76
     0
 77
     2
 78
   300
147
1.0
148
0.0
149
0.0
100
AcDbLayout
  1
Layout2
 70
     1
 71
     2
 10
0.0
 20
0.0
 11
0.0
 21
0.0
 12
0.0
 22
0.0
 32
0.0
 14
0.0
 24
0.0
 34
0.0
 15
0.0
 25
0.0
 35
0.0
146
0.0
 13
0.0
 23
0.0
 33
0.0
 16
1.0
 26
0.0
 36
0.0
 17
0.0
 27
1.0
 37
0.0
 76
     0
330
23
  0
LAYOUT
  5
22
102
{ACAD_REACTORS
330
1A
102
}
330
1A
100
AcDbPlotSettings
  1

  2
none_device
  4

  6

 40
0.0
 41
0.0
 42
0.0
 43
0.0
 44
0.0
 45
0.0
 46
0.0
 47
0.0
 48
0.0
 49
0.0
140
0.0
141
0.0
142
1.0
143
1.0
 70
  1712
 72
     0
 73
     0
 74
     0
  7

 75
     0
 76
     0
 77
     2
 78
   300
147
1.0
148
0.0
149
0.0
100
AcDbLayout
  1
Model
 70
     1
 71
     0
 10
0.0
 20
0.0
 11
12.0
 21
9.0
 12
0.0
 22
0.0
 32
0.0
 14
-90.34999971927027
 24
325.3692377816661
 34
0.0
 15
206.6500002807278
 25
535.3692377816662
 35
0.0
146
0.0
 13
0.0
 23
0.0
 33
0.0
 16
1.0
 26
0.0
 36
0.0
 17
0.0
 27
1.0
 37
0.0
 76
     0
330
1F
331
29
  0
MATERIAL
  5
3D
102
{ACAD_REACTORS
330
3B
102
}
102
{ACAD_XDICTIONARY
360
284
102
}
330
3B
100
AcDbMaterial
  1
ByBlock
  0
MATERIAL
  5
3C
102
{ACAD_REACTORS
330
3B
102
}
102
{ACAD_XDICTIONARY
360
282
102
}
330
3B
100
AcDbMaterial
  1
ByLayer
  0
MATERIAL
  5
3E
102
{ACAD_REACTORS
330
3B
102
}
102
{ACAD_XDICTIONARY
360
286
102
}
330
3B
100
AcDbMaterial
  1
Global
  0
MLINESTYLE
  5
18
102
{ACAD_REACTORS
330
17
102
}
330
17
100
AcDbMlineStyle
  2
Standard
 70
     0
  3

 62
   256
 51
90.0
 52
90.0
 71
     2
 49
0.5
 62
   256
  6
BYLAYER
 49
-0.5
 62
   256
  6
BYLAYER
  0
ACDBPLACEHOLDER
  5
F
102
{ACAD_REACTORS
330
E
102
}
330
E
  0
VISUALSTYLE
  5
2F
102
{ACAD_REACTORS
330
2A
102
}
102
{ACAD_XDICTIONARY
360
26A
102
}
330
2A
100
AcDbVisualStyle
  2
2dWireframe
 70
     4
 71
     0
 72
     2
 73
     0
 90
        0
 40
-0.6
 41
-30.0
 62
     5
 63
     7
421
 16777215
 74
     1
 91
        4
 64
     7
 65
   257
 75
     1
175
     1
 42
1.0
 92
        0
 66
   257
 43
1.0
 76
     1
 77
     6
 78
     2
 67
     7
 79
     5
170
     0
171
     0
290
     0
174
     0
 93
        1
 44
0.0
173
     0
291
     0
 45
0.0
1001
ACAD
1000
AcDbSavedByObjectVersion
1070
     0
  0
VISUALSTYLE
  5
31
102
{ACAD_REACTORS
330
2A
102
}
102
{ACAD_XDICTIONARY
360
26E
102
}
330
2A
100
AcDbVisualStyle
  2
3D Hidden
 70
     6
 71
     1
 72
     2
 73
     2
 90
        0
 40
-0.6
 41
-30.0
 62
     5
 63
     7
421
 16777215
 74
     2
 91
        2
 64
     7
 65
   257
 75
     2
175
     1
 42
40.0
 92
        0
 66
   257
 43
1.0
 76
     1
 77
     6
 78
     2
 67
     7
 79
     3
170
     0
171
     0
290
     0
174
     0
 93
        1
 44
0.0
173
     0
291
     0
 45
0.0
1001
ACAD
1000
AcDbSavedByObjectVersion
1070
     0
  0
VISUALSTYLE
  5
30
102
{ACAD_REACTORS
330
2A
102
}
102
{ACAD_XDICTIONARY
360
26C
102
}
330
2A
100
AcDbVisualStyle
  2
3dWireframe
 70
     5
 71
     0
 72
     2
 73
     0
 90
        0
 40
-0.6
 41
-30.0
 62
     5
 63
     7
421
 16777215
 74
     1
 91
        4
 64
     7
 65
   257
 75
     1
175
     1
 42
1.0
 92
        0
 66
   257
 43
1.0
 76
     1
 77
     6
 78
     2
 67
     7
 79
     5
170
     0
171
     0
290
     0
174
     0
 93
        1
 44
0.0
173
     0
291
     0
 45
0.0
1001
ACAD
1000
AcDbSavedByObjectVersion
1070
     0
  0
VISUALSTYLE
  5
32
102
{ACAD_REACTORS
330
2A
102
}
102
{ACAD_XDICTIONARY
360
270
102
}
330
2A
100
AcDbVisualStyle
  2
Basic
 70
     7
 71
     1
 72
     0
 73
     1
 90
        0
 40
-0.6
 41
-30.0
 62
     5
 63
     7
421
 16777215
 74
     0
 91
        4
 64
     7
 65
   257
 75
     1
175
     1
 42
1.0
 92
        8
 66
     7
 43
1.0
 76
     1
 77
     6
 78
     2
 67
     7
 79
     5
170
     0
171
     0
290
     0
174
     0
 93
        1
 44
0.0
173
     0
291
     1
 45
0.0
1001
ACAD
1000
AcDbSavedByObjectVersion
1070
     0
  0
VISUALSTYLE
  5
36
102
{ACAD_REACTORS
330
2A
102
}
102
{ACAD_XDICTIONARY
360
278
102
}
330
2A
100
AcDbVisualStyle
  2
Brighten
 70
    12
 71
     2
 72
     2
 73
     0
 90
        0
 40
-0.6
 41
-30.0
 62
     5
 63
     7
421
 16777215
 74
     1
 91
        4
 64
     7
 65
   257
 75
     1
175
     1
 42
1.0
 92
        8
 66
     7
 43
1.0
 76
     1
 77
     6
 78
     2
 67
     7
 79
     5
170
     0
171
     0
290
     0
174
     0
 93
        1
 44
50.0
173
     0
291
     1
 45
0.0
1001
ACAD
1000
AcDbSavedByObjectVersion
1070
     0
  0
VISUALSTYLE
  5
3A
102
{ACAD_REACTORS
330
2A
102
}
102
{ACAD_XDICTIONARY
360
280
102
}
330
2A
100
AcDbVisualStyle
  2
ColorChange
 70
    16
 71
     2
 72
     2
 73
     3
 90
        0
 40
-0.6
 41
-30.0
 62
     5
 63
     8
421
  8421504
 74
     1
 91
        4
 64
     7
 65
   257
 75
     1
175
     1
 42
1.0
 92
        8
 66
     8
424
  8421504
 43
1.0
 76
     1
 77
     6
 78
     2
 67
     7
 79
     5
170
     0
171
     0
290
     0
174
     0
 93
        1
 44
0.0
173
     0
291
     1
 45
0.0
1001
ACAD
1000
AcDbSavedByObjectVersion
1070
     0
  0
VISUALSTYLE
  5
34
102
{ACAD_REACTORS
330
2A
102
}
102
{ACAD_XDICTIONARY
360
274
102
}
330
2A
100
AcDbVisualStyle
  2
Conceptual
 70
     9
 71
     3
 72
     2
 73
     0
 90
        0
 40
-0.6
 41
-30.0
 62
     5
 63
     7
421
 16777215
 74
     2
 91
        2
 64
     7
 65
   257
 75
     1
175
     1
 42
40.0
 92
        8
 66
     7
 43
1.0
 76
     1
 77
     6
 78
     2
 67
     7
 79
     3
170
     0
171
     0
290
     0
174
     0
 93
        1
 44
0.0
173
     0
291
     0
 45
0.0
1001
ACAD
1000
AcDbSavedByObjectVersion
1070
     0
  0
VISUALSTYLE
  5
35
102
{ACAD_REACTORS
330
2A
102
}
102
{ACAD_XDICTIONARY
360
276
102
}
330
2A
100
AcDbVisualStyle
  2
Dim
 70
    11
 71
     2
 72
     2
 73
     0
 90
        0
 40
-0.6
 41
-30.0
 62
     5
 63
     7
421
 16777215
 74
     1
 91
        4
 64
     7
 65
   257
 75
     1
175
     1
 42
1.0
 92
        8
 66
     7
 43
1.0
 76
     1
 77
     6
 78
     2
 67
     7
 79
     5
170
     0
171
     0
290
     0
174
     0
 93
        1
 44
-50.0
173
     0
291
     1
 45
0.0
1001
ACAD
1000
AcDbSavedByObjectVersion
1070
     0
  0
VISUALSTYLE
  5
39
102
{ACAD_REACTORS
330
2A
102
}
102
{ACAD_XDICTIONARY
360
27E
102
}
330
2A
100
AcDbVisualStyle
  2
Facepattern
 70
    15
 71
     2
 72
     2
 73
     0
 90
        0
 40
-0.6
 41
-30.0
 62
     5
 63
     7
421
 16777215
 74
     1
 91
        4
 64
     7
 65
   257
 75
     1
175
     1
 42
1.0
 92
        8
 66
     7
 43
1.0
 76
     1
 77
     6
 78
     2
 67
     7
 79
     5
170
     0
171
     0
290
     0
174
     0
 93
        1
 44
0.0
173
     0
291
     1
 45
0.0
1001
ACAD
1000
AcDbSavedByObjectVersion
1070
     0
  0
VISUALSTYLE
  5
2B
102
{ACAD_REACTORS
330
2A
102
}
102
{ACAD_XDICTIONARY
360
262
102
}
330
2A
100
AcDbVisualStyle
  2
Flat
 70
     0
 71
     2
 72
     1
 73
     1
 90
        2
 40
-0.6
 41
30.0
 62
     5
 63
     7
421
 16777215
 74
     0
 91
        4
 64
     7
 65
   257
 75
     1
175
     1
 42
1.0
 92
        8
 66
     7
 43
1.0
 76
     1
 77
     6
 78
     2
 67
     7
 79
     5
170
     0
171
     0
290
     0
174
     0
 93
       13
 44
0.0
173
     0
291
     1
 45
0.0
1001
ACAD
1000
AcDbSavedByObjectVersion
1070
     0
  0
VISUALSTYLE
  5
2C
102
{ACAD_REACTORS
330
2A
102
}
102
{ACAD_XDICTIONARY
360
264
102
}
330
2A
100
AcDbVisualStyle
  2
FlatWithEdges
 70
     1
 71
     2
 72
     1
 73
     1
 90
        2
 40
-0.6
 41
30.0
 62
     5
 63
     7
421
 16777215
 74
     1
 91
        4
 64
     7
 65
   257
 75
     1
175
     1
 42
1.0
 92
        0
 66
   257
 43
1.0
 76
     1
 77
     6
 78
     2
 67
     7
 79
     5
170
     0
171
     0
290
     0
174
     0
 93
       13
 44
0.0
173
     0
291
     1
 45
0.0
1001
ACAD
1000
AcDbSavedByObjectVersion
1070
     0
  0
VISUALSTYLE
  5
2D
102
{ACAD_REACTORS
330
2A
102
}
102
{ACAD_XDICTIONARY
360
266
102
}
330
2A
100
AcDbVisualStyle
  2
Gouraud
 70
     2
 71
     2
 72
     2
 73
     1
 90
        2
 40
-0.6
 41
30.0
 62
     5
 63
     7
421
 16777215
 74
     0
 91
        4
 64
     7
 65
   257
 75
     1
175
     1
 42
1.0
 92
        0
 66
     7
 43
1.0
 76
     1
 77
     6
 78
     2
 67
     7
 79
     5
170
     0
171
     0
290
     0
174
     0
 93
       13
 44
0.0
173
     0
291
     1
 45
0.0
1001
ACAD
1000
AcDbSavedByObjectVersion
1070
     0
  0
VISUALSTYLE
  5
2E
102
{ACAD_REACTORS
330
2A
102
}
102
{ACAD_XDICTIONARY
360
268
102
}
330
2A
100
AcDbVisualStyle
  2
GouraudWithEdges
 70
     3
 71
     2
 72
     2
 73
     1
 90
        2
 40
-0.6
 41
30.0
 62
     5
 63
     7
421
 16777215
 74
     1
 91
        4
 64
     7
 65
   257
 75
     1
175
     1
 42
1.0
 92
        0
 66
   257
 43
1.0
 76
     1
 77
     6
 78
     2
 67
     7
 79
     5
170
     0
171
     0
290
     0
174
     0
 93
       13
 44
0.0
173
     0
291
     1
 45
0.0
1001
ACAD
1000
AcDbSavedByObjectVersion
1070
     0
  0
VISUALSTYLE
  5
38
102
{ACAD_REACTORS
330
2A
102
}
102
{ACAD_XDICTIONARY
360
27C
102
}
330
2A
100
AcDbVisualStyle
  2
Linepattern
 70
    14
 71
     2
 72
     2
 73
     0
 90
        0
 40
-0.6
 41
-30.0
 62
     5
 63
     7
421
 16777215
 74
     1
 91
        4
 64
     7
 65
   257
 75
     7
175
     7
 42
1.0
 92
        8
 66
     7
 43
1.0
 76
     1
 77
     6
 78
     2
 67
     7
 79
     5
170
     0
171
     0
290
     0
174
     0
 93
        1
 44
0.0
173
     0
291
     1
 45
0.0
1001
ACAD
1000
AcDbSavedByObjectVersion
1070
     0
  0
VISUALSTYLE
  5
33
102
{ACAD_REACTORS
330
2A
102
}
102
{ACAD_XDICTIONARY
360
272
102
}
330
2A
100
AcDbVisualStyle
  2
Realistic
 70
     8
 71
     2
 72
     2
 73
     0
 90
        0
 40
-0.6
 41
-30.0
 62
     5
 63
     7
421
 16777215
 74
     1
 91
        0
 64
     7
 65
   257
 75
     1
175
     1
 42
1.0
 92
        8
 66
     8
424
  7895160
 43
1.0
 76
     1
 77
     6
 78
     2
 67
     7
 79
     5
170
     0
171
     0
290
     0
174
     0
 93
       13
 44
0.0
173
     0
291
     0
 45
0.0
1001
ACAD
1000
AcDbSavedByObjectVersion
1070
     0
  0
VISUALSTYLE
  5
37
102
{ACAD_REACTORS
330
2A
102
}
102
{ACAD_XDICTIONARY
360
27A
102
}
330
2A
100
AcDbVisualStyle
  2
Thicken
 70
    13
 71
     2
 72
     2
 73
     0
 90
        0
 40
-0.6
 41
-30.0
 62
     5
 63
     7
421
 16777215
 74
     1
 91
        4
 64
     7
 65
   257
 75
     1
175
     1
 42
1.0
 92
       12
 66
     7
 43
1.0
 76
     1
 77
     6
 78
     2
 67
     7
 79
     5
170
     0
171
     0
290
     0
174
     0
 93
        1
 44
0.0
173
     0
291
     1
 45
0.0
1001
ACAD
1000
AcDbSavedByObjectVersion
1070
     0
  0
DICTIONARY
  5
284
330
3D
100
AcDbDictionary
280
     1
281
     1
  3
ACAD_XREC_ROUNDTRIP
360
285
  0
DICTIONARY
  5
282
330
3C
100
AcDbDictionary
280
     1
281
     1
  3
ACAD_XREC_ROUNDTRIP
360
283
  0
DICTIONARY
  5
286
330
3E
100
AcDbDictionary
280
     1
281
     1
  3
ACAD_XREC_ROUNDTRIP
360
287
  0
DICTIONARY
  5
26A
330
2F
100
AcDbDictionary
280
     1
281
     1
  3
ACAD_XREC_ROUNDTRIP
360
26B
  0
DICTIONARY
  5
26E
330
31
100
AcDbDictionary
280
     1
281
     1
  3
ACAD_XREC_ROUNDTRIP
360
26F
  0
DICTIONARY
  5
26C
330
30
100
AcDbDictionary
280
     1
281
     1
  3
ACAD_XREC_ROUNDTRIP
360
26D
  0
DICTIONARY
  5
270
330
32
100
AcDbDictionary
280
     1
281
     1
  3
ACAD_XREC_ROUNDTRIP
360
271
  0
DICTIONARY
  5
278
330
36
100
AcDbDictionary
280
     1
281
     1
  3
ACAD_XREC_ROUNDTRIP
360
279
  0
DICTIONARY
  5
280
330
3A
100
AcDbDictionary
280
     1
281
     1
  3
ACAD_XREC_ROUNDTRIP
360
281
  0
DICTIONARY
  5
274
330
34
100
AcDbDictionary
280
     1
281
     1
  3
ACAD_XREC_ROUNDTRIP
360
275
  0
DICTIONARY
  5
276
330
35
100
AcDbDictionary
280
     1
281
     1
  3
ACAD_XREC_ROUNDTRIP
360
277
  0
DICTIONARY
  5
27E
330
39
100
AcDbDictionary
280
     1
281
     1
  3
ACAD_XREC_ROUNDTRIP
360
27F
  0
DICTIONARY
  5
262
330
2B
100
AcDbDictionary
280
     1
281
     1
  3
ACAD_XREC_ROUNDTRIP
360
263
  0
DICTIONARY
  5
264
330
2C
100
AcDbDictionary
280
     1
281
     1
  3
ACAD_XREC_ROUNDTRIP
360
265
  0
DICTIONARY
  5
266
330
2D
100
AcDbDictionary
280
     1
281
     1
  3
ACAD_XREC_ROUNDTRIP
360
267
  0
DICTIONARY
  5
268
330
2E
100
AcDbDictionary
280
     1
281
     1
  3
ACAD_XREC_ROUNDTRIP
360
269
  0
DICTIONARY
  5
27C
330
38
100
AcDbDictionary
280
     1
281
     1
  3
ACAD_XREC_ROUNDTRIP
360
27D
  0
DICTIONARY
  5
272
330
33
100
AcDbDictionary
280
     1
281
     1
  3
ACAD_XREC_ROUNDTRIP
360
273
  0
DICTIONARY
  5
27A
330
37
100
AcDbDictionary
280
     1
281
     1
  3
ACAD_XREC_ROUNDTRIP
360
27B
  0
XRECORD
  5
285
102
{ACAD_REACTORS
330
284
102
}
330
284
100
AcDbXrecord
280
     1
102
MATERIAL
148
0.0
149
0.0
149
0.0
 93
        0
 94
      127
282
     0
 72
     1
 77
     1
171
     1
175
     1
179
     1
273
     0
  0
XRECORD
  5
283
102
{ACAD_REACTORS
330
282
102
}
330
282
100
AcDbXrecord
280
     1
102
MATERIAL
148
0.0
149
0.0
149
0.0
 93
        0
 94
      127
282
     0
 72
     1
 77
     1
171
     1
175
     1
179
     1
273
     0
  0
XRECORD
  5
287
102
{ACAD_REACTORS
330
286
102
}
330
286
100
AcDbXrecord
280
     1
102
MATERIAL
148
0.0
149
0.0
149
0.0
 93
        0
 94
      127
282
     0
 72
     1
 77
     1
171
     1
175
     1
179
     1
273
     0
  0
XRECORD
  5
26B
102
{ACAD_REACTORS
330
26A
102
}
330
26A
100
AcDbXrecord
280
     1
102
RTVSPropertyOp0
 70
     1
102
RTVSPropertyOp1
 70
     1
102
RTVSPropertyOp2
 70
     1
102
RTVSPropertyOp3
 70
     1
102
RTVSPropertyOp4
 70
     1
102
RTVSPropertyOp5
 70
     1
102
RTVSPropertyOp6
 70
     1
102
RTVSPropertyOp7
 70
     1
102
RTVSPropertyOp8
 70
     1
102
RTVSPropertyOp9
 70
     1
102
RTVSPropertyOp10
 70
     1
102
RTVSPropertyOp11
 70
     1
102
RTVSPropertyOp12
 70
     1
102
RTVSPropertyOp13
 70
     1
102
RTVSPropertyOp14
 70
     1
102
RTVSPropertyOp15
 70
     1
102
RTVSPropertyOp16
 70
     1
102
RTVSPropertyOp17
 70
     1
102
RTVSPropertyOp18
 70
     1
102
RTVSPropertyOp19
 70
     1
102
RTVSPropertyOp20
 70
     1
102
RTVSPropertyOp21
 70
     1
102
RTVSPropertyOp22
 70
     1
102
RTVSPropertyOp23
 70
     1
102
RTVSPropertyOp24
 70
     1
102
RTVSPropertyOp25
 70
     1
102
RTVSPropertyOp26
 70
     1
102
RTVSPropertyOp27
 70
     1
102
RTVSPropertyOp28
 70
     1
102
RTVSPropertyOp29
 70
     1
102
RTVSPropertyOp30
 70
     1
102
RTVSPropertyOp31
 70
     1
102
RTVSPropertyOp32
 70
     1
  0
XRECORD
  5
26F
102
{ACAD_REACTORS
330
26E
102
}
330
26E
100
AcDbXrecord
280
     1
102
RTVSPropertyOp0
 70
     1
102
RTVSPropertyOp1
 70
     1
102
RTVSPropertyOp2
 70
     1
102
RTVSPropertyOp3
 70
     1
102
RTVSPropertyOp4
 70
     1
102
RTVSPropertyOp5
 70
     1
102
RTVSPropertyOp6
 70
     1
102
RTVSPropertyOp7
 70
     1
102
RTVSPropertyOp8
 70
     1
102
RTVSPropertyOp9
 70
     1
102
RTVSPropertyOp10
 70
     1
102
RTVSPropertyOp11
 70
     1
102
RTVSPropertyOp12
 70
     1
102
RTVSPropertyOp13
 70
     1
102
RTVSPropertyOp14
 70
     1
102
RTVSPropertyOp15
 70
     1
102
RTVSPropertyOp16
 70
     1
102
RTVSPropertyOp17
 70
     1
102
RTVSPropertyOp18
 70
     1
102
RTVSPropertyOp19
 70
     1
102
RTVSPropertyOp20
 70
     1
102
RTVSPropertyOp21
 70
     1
102
RTVSPropertyOp22
 70
     1
102
RTVSPropertyOp23
 70
     1
102
RTVSPropertyOp24
 70
     1
102
RTVSPropertyOp25
 70
     1
102
RTVSPropertyOp26
 70
     1
102
RTVSPropertyOp27
 70
     1
102
RTVSPropertyOp28
 70
     1
102
RTVSPropertyOp29
 70
     1
102
RTVSPropertyOp30
 70
     1
102
RTVSPropertyOp31
 70
     1
102
RTVSPropertyOp32
 70
     1
  0
XRECORD
  5
26D
102
{ACAD_REACTORS
330
26C
102
}
330
26C
100
AcDbXrecord
280
     1
102
RTVSPropertyOp0
 70
     1
102
RTVSPropertyOp1
 70
     1
102
RTVSPropertyOp2
 70
     1
102
RTVSPropertyOp3
 70
     1
102
RTVSPropertyOp4
 70
     1
102
RTVSPropertyOp5
 70
     1
102
RTVSPropertyOp6
 70
     1
102
RTVSPropertyOp7
 70
     1
102
RTVSPropertyOp8
 70
     1
102
RTVSPropertyOp9
 70
     1
102
RTVSPropertyOp10
 70
     1
102
RTVSPropertyOp11
 70
     1
102
RTVSPropertyOp12
 70
     1
102
RTVSPropertyOp13
 70
     1
102
RTVSPropertyOp14
 70
     1
102
RTVSPropertyOp15
 70
     1
102
RTVSPropertyOp16
 70
     1
102
RTVSPropertyOp17
 70
     1
102
RTVSPropertyOp18
 70
     1
102
RTVSPropertyOp19
 70
     1
102
RTVSPropertyOp20
 70
     1
102
RTVSPropertyOp21
 70
     1
102
RTVSPropertyOp22
 70
     1
102
RTVSPropertyOp23
 70
     1
102
RTVSPropertyOp24
 70
     1
102
RTVSPropertyOp25
 70
     1
102
RTVSPropertyOp26
 70
     1
102
RTVSPropertyOp27
 70
     1
102
RTVSPropertyOp28
 70
     1
102
RTVSPropertyOp29
 70
     1
102
RTVSPropertyOp30
 70
     1
102
RTVSPropertyOp31
 70
     1
102
RTVSPropertyOp32
 70
     1
  0
XRECORD
  5
271
102
{ACAD_REACTORS
330
270
102
}
330
270
100
AcDbXrecord
280
     1
102
RTVSPropertyOp0
 70
     1
102
RTVSPropertyOp1
 70
     1
102
RTVSPropertyOp2
 70
     1
102
RTVSPropertyOp3
 70
     1
102
RTVSPropertyOp4
 70
     1
102
RTVSPropertyOp5
 70
     1
102
RTVSPropertyOp6
 70
     1
102
RTVSPropertyOp7
 70
     1
102
RTVSPropertyOp8
 70
     1
102
RTVSPropertyOp9
 70
     1
102
RTVSPropertyOp10
 70
     1
102
RTVSPropertyOp11
 70
     1
102
RTVSPropertyOp12
 70
     1
102
RTVSPropertyOp13
 70
     1
102
RTVSPropertyOp14
 70
     1
102
RTVSPropertyOp15
 70
     1
102
RTVSPropertyOp16
 70
     1
102
RTVSPropertyOp17
 70
     1
102
RTVSPropertyOp18
 70
     1
102
RTVSPropertyOp19
 70
     1
102
RTVSPropertyOp20
 70
     1
102
RTVSPropertyOp21
 70
     1
102
RTVSPropertyOp22
 70
     1
102
RTVSPropertyOp23
 70
     1
102
RTVSPropertyOp24
 70
     1
102
RTVSPropertyOp25
 70
     1
102
RTVSPropertyOp26
 70
     1
102
RTVSPropertyOp27
 70
     1
102
RTVSPropertyOp28
 70
     1
102
RTVSPropertyOp29
 70
     1
102
RTVSPropertyOp30
 70
     1
102
RTVSPropertyOp31
 70
     1
102
RTVSPropertyOp32
 70
     1
  0
XRECORD
  5
279
102
{ACAD_REACTORS
330
278
102
}
330
278
100
AcDbXrecord
280
     1
102
RTVSPropertyOp0
 70
     1
102
RTVSPropertyOp1
 70
     1
102
RTVSPropertyOp2
 70
     1
102
RTVSPropertyOp3
 70
     1
102
RTVSPropertyOp4
 70
     1
102
RTVSPropertyOp5
 70
     1
102
RTVSPropertyOp6
 70
     1
102
RTVSPropertyOp7
 70
     1
102
RTVSPropertyOp8
 70
     1
102
RTVSPropertyOp9
 70
     1
102
RTVSPropertyOp10
 70
     1
102
RTVSPropertyOp11
 70
     1
102
RTVSPropertyOp12
 70
     1
102
RTVSPropertyOp13
 70
     1
102
RTVSPropertyOp14
 70
     1
102
RTVSPropertyOp15
 70
     1
102
RTVSPropertyOp16
 70
     1
102
RTVSPropertyOp17
 70
     1
102
RTVSPropertyOp18
 70
     1
102
RTVSPropertyOp19
 70
     1
102
RTVSPropertyOp20
 70
     1
102
RTVSPropertyOp21
 70
     1
102
RTVSPropertyOp22
 70
     1
102
RTVSPropertyOp23
 70
     1
102
RTVSPropertyOp24
 70
     1
102
RTVSPropertyOp25
 70
     1
102
RTVSPropertyOp26
 70
     1
102
RTVSPropertyOp27
 70
     1
102
RTVSPropertyOp28
 70
     1
102
RTVSPropertyOp29
 70
     1
102
RTVSPropertyOp30
 70
     1
102
RTVSPropertyOp31
 70
     1
102
RTVSPropertyOp32
 70
     1
  0
XRECORD
  5
281
102
{ACAD_REACTORS
330
280
102
}
330
280
100
AcDbXrecord
280
     1
102
RTVSPropertyOp0
 70
     1
102
RTVSPropertyOp1
 70
     1
102
RTVSPropertyOp2
 70
     1
102
RTVSPropertyOp3
 70
     1
102
RTVSPropertyOp4
 70
     1
102
RTVSPropertyOp5
 70
     1
102
RTVSPropertyOp6
 70
     1
102
RTVSPropertyOp7
 70
     1
102
RTVSPropertyOp8
 70
     1
102
RTVSPropertyOp9
 70
     1
102
RTVSPropertyOp10
 70
     1
102
RTVSPropertyOp11
 70
     1
102
RTVSPropertyOp12
 70
     1
102
RTVSPropertyOp13
 70
     1
102
RTVSPropertyOp14
 70
     1
102
RTVSPropertyOp15
 70
     1
102
RTVSPropertyOp16
 70
     1
102
RTVSPropertyOp17
 70
     1
102
RTVSPropertyOp18
 70
     1
102
RTVSPropertyOp19
 70
     1
102
RTVSPropertyOp20
 70
     1
102
RTVSPropertyOp21
 70
     1
102
RTVSPropertyOp22
 70
     1
102
RTVSPropertyOp23
 70
     1
102
RTVSPropertyOp24
 70
     1
102
RTVSPropertyOp25
 70
     1
102
RTVSPropertyOp26
 70
     1
102
RTVSPropertyOp27
 70
     1
102
RTVSPropertyOp28
 70
     1
102
RTVSPropertyOp29
 70
     1
102
RTVSPropertyOp30
 70
     1
102
RTVSPropertyOp31
 70
     1
102
RTVSPropertyOp32
 70
     1
  0
XRECORD
  5
275
102
{ACAD_REACTORS
330
274
102
}
330
274
100
AcDbXrecord
280
     1
102
RTVSPropertyOp0
 70
     1
102
RTVSPropertyOp1
 70
     1
102
RTVSPropertyOp2
 70
     1
102
RTVSPropertyOp3
 70
     1
102
RTVSPropertyOp4
 70
     1
102
RTVSPropertyOp5
 70
     1
102
RTVSPropertyOp6
 70
     1
102
RTVSPropertyOp7
 70
     1
102
RTVSPropertyOp8
 70
     1
102
RTVSPropertyOp9
 70
     1
102
RTVSPropertyOp10
 70
     1
102
RTVSPropertyOp11
 70
     1
102
RTVSPropertyOp12
 70
     1
102
RTVSPropertyOp13
 70
     1
102
RTVSPropertyOp14
 70
     1
102
RTVSPropertyOp15
 70
     1
102
RTVSPropertyOp16
 70
     1
102
RTVSPropertyOp17
 70
     1
102
RTVSPropertyOp18
 70
     1
102
RTVSPropertyOp19
 70
     1
102
RTVSPropertyOp20
 70
     1
102
RTVSPropertyOp21
 70
     1
102
RTVSPropertyOp22
 70
     1
102
RTVSPropertyOp23
 70
     1
102
RTVSPropertyOp24
 70
     1
102
RTVSPropertyOp25
 70
     1
102
RTVSPropertyOp26
 70
     1
102
RTVSPropertyOp27
 70
     1
102
RTVSPropertyOp28
 70
     1
102
RTVSPropertyOp29
 70
     1
102
RTVSPropertyOp30
 70
     1
102
RTVSPropertyOp31
 70
     1
102
RTVSPropertyOp32
 70
     1
  0
XRECORD
  5
277
102
{ACAD_REACTORS
330
276
102
}
330
276
100
AcDbXrecord
280
     1
102
RTVSPropertyOp0
 70
     1
102
RTVSPropertyOp1
 70
     1
102
RTVSPropertyOp2
 70
     1
102
RTVSPropertyOp3
 70
     1
102
RTVSPropertyOp4
 70
     1
102
RTVSPropertyOp5
 70
     1
102
RTVSPropertyOp6
 70
     1
102
RTVSPropertyOp7
 70
     1
102
RTVSPropertyOp8
 70
     1
102
RTVSPropertyOp9
 70
     1
102
RTVSPropertyOp10
 70
     1
102
RTVSPropertyOp11
 70
     1
102
RTVSPropertyOp12
 70
     1
102
RTVSPropertyOp13
 70
     1
102
RTVSPropertyOp14
 70
     1
102
RTVSPropertyOp15
 70
     1
102
RTVSPropertyOp16
 70
     1
102
RTVSPropertyOp17
 70
     1
102
RTVSPropertyOp18
 70
     1
102
RTVSPropertyOp19
 70
     1
102
RTVSPropertyOp20
 70
     1
102
RTVSPropertyOp21
 70
     1
102
RTVSPropertyOp22
 70
     1
102
RTVSPropertyOp23
 70
     1
102
RTVSPropertyOp24
 70
     1
102
RTVSPropertyOp25
 70
     1
102
RTVSPropertyOp26
 70
     1
102
RTVSPropertyOp27
 70
     1
102
RTVSPropertyOp28
 70
     1
102
RTVSPropertyOp29
 70
     1
102
RTVSPropertyOp30
 70
     1
102
RTVSPropertyOp31
 70
     1
102
RTVSPropertyOp32
 70
     1
  0
XRECORD
  5
27F
102
{ACAD_REACTORS
330
27E
102
}
330
27E
100
AcDbXrecord
280
     1
102
RTVSPropertyOp0
 70
     1
102
RTVSPropertyOp1
 70
     1
102
RTVSPropertyOp2
 70
     1
102
RTVSPropertyOp3
 70
     1
102
RTVSPropertyOp4
 70
     1
102
RTVSPropertyOp5
 70
     1
102
RTVSPropertyOp6
 70
     1
102
RTVSPropertyOp7
 70
     1
102
RTVSPropertyOp8
 70
     1
102
RTVSPropertyOp9
 70
     1
102
RTVSPropertyOp10
 70
     1
102
RTVSPropertyOp11
 70
     1
102
RTVSPropertyOp12
 70
     1
102
RTVSPropertyOp13
 70
     1
102
RTVSPropertyOp14
 70
     1
102
RTVSPropertyOp15
 70
     1
102
RTVSPropertyOp16
 70
     1
102
RTVSPropertyOp17
 70
     1
102
RTVSPropertyOp18
 70
     1
102
RTVSPropertyOp19
 70
     1
102
RTVSPropertyOp20
 70
     1
102
RTVSPropertyOp21
 70
     1
102
RTVSPropertyOp22
 70
     1
102
RTVSPropertyOp23
 70
     1
102
RTVSPropertyOp24
 70
     1
102
RTVSPropertyOp25
 70
     1
102
RTVSPropertyOp26
 70
     1
102
RTVSPropertyOp27
 70
     1
102
RTVSPropertyOp28
 70
     1
102
RTVSPropertyOp29
 70
     1
102
RTVSPropertyOp30
 70
     1
102
RTVSPropertyOp31
 70
     1
102
RTVSPropertyOp32
 70
     1
  0
XRECORD
  5
263
102
{ACAD_REACTORS
330
262
102
}
330
262
100
AcDbXrecord
280
     1
102
RTVSPropertyOp0
 70
     1
102
RTVSPropertyOp1
 70
     1
102
RTVSPropertyOp2
 70
     1
102
RTVSPropertyOp3
 70
     1
102
RTVSPropertyOp4
 70
     1
102
RTVSPropertyOp5
 70
     1
102
RTVSPropertyOp6
 70
     1
102
RTVSPropertyOp7
 70
     1
102
RTVSPropertyOp8
 70
     1
102
RTVSPropertyOp9
 70
     1
102
RTVSPropertyOp10
 70
     1
102
RTVSPropertyOp11
 70
     1
102
RTVSPropertyOp12
 70
     1
102
RTVSPropertyOp13
 70
     1
102
RTVSPropertyOp14
 70
     1
102
RTVSPropertyOp15
 70
     1
102
RTVSPropertyOp16
 70
     1
102
RTVSPropertyOp17
 70
     1
102
RTVSPropertyOp18
 70
     1
102
RTVSPropertyOp19
 70
     1
102
RTVSPropertyOp20
 70
     1
102
RTVSPropertyOp21
 70
     1
102
RTVSPropertyOp22
 70
     1
102
RTVSPropertyOp23
 70
     1
102
RTVSPropertyOp24
 70
     1
102
RTVSPropertyOp25
 70
     1
102
RTVSPropertyOp26
 70
     1
102
RTVSPropertyOp27
 70
     1
102
RTVSPropertyOp28
 70
     1
102
RTVSPropertyOp29
 70
     1
102
RTVSPropertyOp30
 70
     1
102
RTVSPropertyOp31
 70
     1
102
RTVSPropertyOp32
 70
     1
  0
XRECORD
  5
265
102
{ACAD_REACTORS
330
264
102
}
330
264
100
AcDbXrecord
280
     1
102
RTVSPropertyOp0
 70
     1
102
RTVSPropertyOp1
 70
     1
102
RTVSPropertyOp2
 70
     1
102
RTVSPropertyOp3
 70
     1
102
RTVSPropertyOp4
 70
     1
102
RTVSPropertyOp5
 70
     1
102
RTVSPropertyOp6
 70
     1
102
RTVSPropertyOp7
 70
     1
102
RTVSPropertyOp8
 70
     1
102
RTVSPropertyOp9
 70
     1
102
RTVSPropertyOp10
 70
     1
102
RTVSPropertyOp11
 70
     1
102
RTVSPropertyOp12
 70
     1
102
RTVSPropertyOp13
 70
     1
102
RTVSPropertyOp14
 70
     1
102
RTVSPropertyOp15
 70
     1
102
RTVSPropertyOp16
 70
     1
102
RTVSPropertyOp17
 70
     1
102
RTVSPropertyOp18
 70
     1
102
RTVSPropertyOp19
 70
     1
102
RTVSPropertyOp20
 70
     1
102
RTVSPropertyOp21
 70
     1
102
RTVSPropertyOp22
 70
     1
102
RTVSPropertyOp23
 70
     1
102
RTVSPropertyOp24
 70
     1
102
RTVSPropertyOp25
 70
     1
102
RTVSPropertyOp26
 70
     1
102
RTVSPropertyOp27
 70
     1
102
RTVSPropertyOp28
 70
     1
102
RTVSPropertyOp29
 70
     1
102
RTVSPropertyOp30
 70
     1
102
RTVSPropertyOp31
 70
     1
102
RTVSPropertyOp32
 70
     1
  0
XRECORD
  5
267
102
{ACAD_REACTORS
330
266
102
}
330
266
100
AcDbXrecord
280
     1
102
RTVSPropertyOp0
 70
     1
102
RTVSPropertyOp1
 70
     1
102
RTVSPropertyOp2
 70
     1
102
RTVSPropertyOp3
 70
     1
102
RTVSPropertyOp4
 70
     1
102
RTVSPropertyOp5
 70
     1
102
RTVSPropertyOp6
 70
     1
102
RTVSPropertyOp7
 70
     1
102
RTVSPropertyOp8
 70
     1
102
RTVSPropertyOp9
 70
     1
102
RTVSPropertyOp10
 70
     1
102
RTVSPropertyOp11
 70
     1
102
RTVSPropertyOp12
 70
     1
102
RTVSPropertyOp13
 70
     1
102
RTVSPropertyOp14
 70
     1
102
RTVSPropertyOp15
 70
     1
102
RTVSPropertyOp16
 70
     1
102
RTVSPropertyOp17
 70
     1
102
RTVSPropertyOp18
 70
     1
102
RTVSPropertyOp19
 70
     1
102
RTVSPropertyOp20
 70
     1
102
RTVSPropertyOp21
 70
     1
102
RTVSPropertyOp22
 70
     1
102
RTVSPropertyOp23
 70
     1
102
RTVSPropertyOp24
 70
     1
102
RTVSPropertyOp25
 70
     1
102
RTVSPropertyOp26
 70
     1
102
RTVSPropertyOp27
 70
     1
102
RTVSPropertyOp28
 70
     1
102
RTVSPropertyOp29
 70
     1
102
RTVSPropertyOp30
 70
     1
102
RTVSPropertyOp31
 70
     1
102
RTVSPropertyOp32
 70
     1
  0
XRECORD
  5
269
102
{ACAD_REACTORS
330
268
102
}
330
268
100
AcDbXrecord
280
     1
102
RTVSPropertyOp0
 70
     1
102
RTVSPropertyOp1
 70
     1
102
RTVSPropertyOp2
 70
     1
102
RTVSPropertyOp3
 70
     1
102
RTVSPropertyOp4
 70
     1
102
RTVSPropertyOp5
 70
     1
102
RTVSPropertyOp6
 70
     1
102
RTVSPropertyOp7
 70
     1
102
RTVSPropertyOp8
 70
     1
102
RTVSPropertyOp9
 70
     1
102
RTVSPropertyOp10
 70
     1
102
RTVSPropertyOp11
 70
     1
102
RTVSPropertyOp12
 70
     1
102
RTVSPropertyOp13
 70
     1
102
RTVSPropertyOp14
 70
     1
102
RTVSPropertyOp15
 70
     1
102
RTVSPropertyOp16
 70
     1
102
RTVSPropertyOp17
 70
     1
102
RTVSPropertyOp18
 70
     1
102
RTVSPropertyOp19
 70
     1
102
RTVSPropertyOp20
 70
     1
102
RTVSPropertyOp21
 70
     1
102
RTVSPropertyOp22
 70
     1
102
RTVSPropertyOp23
 70
     1
102
RTVSPropertyOp24
 70
     1
102
RTVSPropertyOp25
 70
     1
102
RTVSPropertyOp26
 70
     1
102
RTVSPropertyOp27
 70
     1
102
RTVSPropertyOp28
 70
     1
102
RTVSPropertyOp29
 70
     1
102
RTVSPropertyOp30
 70
     1
102
RTVSPropertyOp31
 70
     1
102
RTVSPropertyOp32
 70
     1
  0
XRECORD
  5
27D
102
{ACAD_REACTORS
330
27C
102
}
330
27C
100
AcDbXrecord
280
     1
102
RTVSPropertyOp0
 70
     1
102
RTVSPropertyOp1
 70
     1
102
RTVSPropertyOp2
 70
     1
102
RTVSPropertyOp3
 70
     1
102
RTVSPropertyOp4
 70
     1
102
RTVSPropertyOp5
 70
     1
102
RTVSPropertyOp6
 70
     1
102
RTVSPropertyOp7
 70
     1
102
RTVSPropertyOp8
 70
     1
102
RTVSPropertyOp9
 70
     1
102
RTVSPropertyOp10
 70
     1
102
RTVSPropertyOp11
 70
     1
102
RTVSPropertyOp12
 70
     1
102
RTVSPropertyOp13
 70
     1
102
RTVSPropertyOp14
 70
     1
102
RTVSPropertyOp15
 70
     1
102
RTVSPropertyOp16
 70
     1
102
RTVSPropertyOp17
 70
     1
102
RTVSPropertyOp18
 70
     1
102
RTVSPropertyOp19
 70
     1
102
RTVSPropertyOp20
 70
     1
102
RTVSPropertyOp21
 70
     1
102
RTVSPropertyOp22
 70
     1
102
RTVSPropertyOp23
 70
     1
102
RTVSPropertyOp24
 70
     1
102
RTVSPropertyOp25
 70
     1
102
RTVSPropertyOp26
 70
     1
102
RTVSPropertyOp27
 70
     1
102
RTVSPropertyOp28
 70
     1
102
RTVSPropertyOp29
 70
     1
102
RTVSPropertyOp30
 70
     1
102
RTVSPropertyOp31
 70
     1
102
RTVSPropertyOp32
 70
     1
  0
XRECORD
  5
273
102
{ACAD_REACTORS
330
272
102
}
330
272
100
AcDbXrecord
280
     1
102
RTVSPropertyOp0
 70
     1
102
RTVSPropertyOp1
 70
     1
102
RTVSPropertyOp2
 70
     1
102
RTVSPropertyOp3
 70
     1
102
RTVSPropertyOp4
 70
     1
102
RTVSPropertyOp5
 70
     1
102
RTVSPropertyOp6
 70
     1
102
RTVSPropertyOp7
 70
     1
102
RTVSPropertyOp8
 70
     1
102
RTVSPropertyOp9
 70
     1
102
RTVSPropertyOp10
 70
     1
102
RTVSPropertyOp11
 70
     1
102
RTVSPropertyOp12
 70
     1
102
RTVSPropertyOp13
 70
     1
102
RTVSPropertyOp14
 70
     1
102
RTVSPropertyOp15
 70
     1
102
RTVSPropertyOp16
 70
     1
102
RTVSPropertyOp17
 70
     1
102
RTVSPropertyOp18
 70
     1
102
RTVSPropertyOp19
 70
     1
102
RTVSPropertyOp20
 70
     1
102
RTVSPropertyOp21
 70
     1
102
RTVSPropertyOp22
 70
     1
102
RTVSPropertyOp23
 70
     1
102
RTVSPropertyOp24
 70
     1
102
RTVSPropertyOp25
 70
     1
102
RTVSPropertyOp26
 70
     1
102
RTVSPropertyOp27
 70
     1
102
RTVSPropertyOp28
 70
     1
102
RTVSPropertyOp29
 70
     1
102
RTVSPropertyOp30
 70
     1
102
RTVSPropertyOp31
 70
     1
102
RTVSPropertyOp32
 70
     1
  0
XRECORD
  5
27B
102
{ACAD_REACTORS
330
27A
102
}
330
27A
100
AcDbXrecord
280
     1
102
RTVSPropertyOp0
 70
     1
102
RTVSPropertyOp1
 70
     1
102
RTVSPropertyOp2
 70
     1
102
RTVSPropertyOp3
 70
     1
102
RTVSPropertyOp4
 70
     1
102
RTVSPropertyOp5
 70
     1
102
RTVSPropertyOp6
 70
     1
102
RTVSPropertyOp7
 70
     1
102
RTVSPropertyOp8
 70
     1
102
RTVSPropertyOp9
 70
     1
102
RTVSPropertyOp10
 70
     1
102
RTVSPropertyOp11
 70
     1
102
RTVSPropertyOp12
 70
     1
102
RTVSPropertyOp13
 70
     1
102
RTVSPropertyOp14
 70
     1
102
RTVSPropertyOp15
 70
     1
102
RTVSPropertyOp16
 70
     1
102
RTVSPropertyOp17
 70
     1
102
RTVSPropertyOp18
 70
     1
102
RTVSPropertyOp19
 70
     1
102
RTVSPropertyOp20
 70
     1
102
RTVSPropertyOp21
 70
     1
102
RTVSPropertyOp22
 70
     1
102
RTVSPropertyOp23
 70
     1
102
RTVSPropertyOp24
 70
     1
102
RTVSPropertyOp25
 70
     1
102
RTVSPropertyOp26
 70
     1
102
RTVSPropertyOp27
 70
     1
102
RTVSPropertyOp28
 70
     1
102
RTVSPropertyOp29
 70
     1
102
RTVSPropertyOp30
 70
     1
102
RTVSPropertyOp31
 70
     1
102
RTVSPropertyOp32
 70
     1
  0
ENDSEC
  0
EOF
